<?xml version="1.0" standalone="no"?>
<!DOCTYPE svg PUBLIC "-//W3C//DTD SVG 1.1//EN" "http://www.w3.org/Graphics/SVG/1.1/DTD/svg11.dtd" >
<svg xmlns="http://www.w3.org/2000/svg">
<metadata>Generated by IcoMoon</metadata>
<defs>
<font id="thegem-elementor" horiz-adv-x="1024">
<font-face units-per-em="1024" ascent="960" descent="-64" />
<missing-glyph horiz-adv-x="1024" />
<glyph unicode="&#x20;" horiz-adv-x="512" d="" />
<glyph unicode="&#xe601;" glyph-name="TheGem-Elementor-Widget-Icon-01" d="M915.18 704.464c40.268 0 73.214-32.946 73.214-73.214v-366.071c0-40.268-32.946-73.214-73.214-73.214h-805.357c-40.268 0-73.214 32.946-73.214 73.214v366.071c0 40.268 32.946 73.214 73.214 73.214h805.357zM915.18 741.071h-805.357c-62.232 0-109.821-47.589-109.821-109.821v-366.071c0-62.232 47.589-109.821 109.821-109.821h805.357c62.232 0 109.821 47.589 109.821 109.821v366.071c0 62.232-47.589 109.821-109.821 109.821v0zM951.786 924.108c21.964 0 36.607-14.643 36.607-36.607s-14.643-36.607-36.607-36.607h-878.572c-21.964 0-36.607 14.643-36.607 36.607s14.643 36.607 36.607 36.607h878.572zM951.786 960.715h-878.572c-40.268 0-73.214-32.946-73.214-73.214s32.946-73.214 73.214-73.214h878.572c40.268 0 73.214 32.946 73.214 73.214s-32.946 73.214-73.214 73.214v0zM951.786 45.535c21.964 0 36.607-14.643 36.607-36.607s-14.643-36.607-36.607-36.607h-878.572c-21.964 0-36.607 14.643-36.607 36.607s14.643 36.607 36.607 36.607h878.572zM951.786 82.143h-878.572c-40.268 0-73.214-32.946-73.214-73.214s32.946-73.214 73.214-73.214h878.572c40.268 0 73.214 32.946 73.214 73.214s-32.946 73.214-73.214 73.214v0z" />
<glyph unicode="&#xe602;" glyph-name="TheGem-Elementor-Widget-Icon-02" d="M439.286 521.429c21.964 0 36.607-14.643 36.607-36.607v-73.214c0-21.964-14.643-36.607-36.607-36.607s-36.607 14.643-36.607 36.607v73.214c0 21.964 14.643 36.607 36.607 36.607zM439.286 558.035v0c-40.268 0-73.214-32.946-73.214-73.214v-73.214c0-40.268 32.946-73.214 73.214-73.214v0c40.268 0 73.214 32.946 73.214 73.214v73.214c0 40.268-32.946 73.214-73.214 73.214v0zM805.357 521.429c21.964 0 36.607-14.643 36.607-36.607v-73.214c0-21.964-14.643-36.607-36.607-36.607s-36.607 14.643-36.607 36.607v73.214c0 21.964 14.643 36.607 36.607 36.607zM805.357 558.035v0c-40.268 0-73.214-32.946-73.214-73.214v-73.214c0-40.268 32.946-73.214 73.214-73.214v0c40.268 0 73.214 32.946 73.214 73.214v73.214c0 40.268-32.946 73.214-73.214 73.214v0zM413.661 902.143l84.196-51.25c7.321-3.661 10.982-3.661 18.304-3.661s14.643 0 18.304 3.661l84.196 51.25 54.911-80.536c7.321-10.982 18.304-14.643 29.286-14.643h3.661l98.84 7.321 14.643-98.84c3.661-14.643 10.982-25.625 21.964-29.286l91.518-36.607-25.625-91.518c-3.661-10.982 0-25.625 7.321-36.607l69.554-73.214-69.554-73.214c-7.321-10.982-10.982-21.964-7.321-36.607l29.286-95.179-91.518-36.607c-10.982-3.661-21.964-14.643-21.964-29.286l-18.304-95.179-98.84 7.321h-3.661c-10.982 0-21.964-7.321-29.286-14.643l-54.911-80.536-84.196 51.25c-7.321 3.661-10.982 3.661-18.304 3.661s-14.643 0-18.304-3.661l-84.196-51.25-54.911 80.536c-7.321 10.982-18.304 14.643-29.286 14.643h-3.661l-98.84-7.321-14.643 98.84c-3.661 14.643-10.982 25.625-21.964 29.286l-91.518 36.607 25.625 91.518c3.661 10.982 0 25.625-7.321 36.607l-69.554 73.214 69.554 73.214c7.321 10.982 10.982 21.964 7.321 36.607l-29.286 91.518 91.518 36.607c10.982 3.661 21.964 14.643 21.964 29.286l18.304 98.84 98.84-7.321h3.661c10.982 0 21.964 7.321 29.286 14.643l54.911 80.536zM402.679 949.733l-73.214-109.821-135.446 10.982-18.304-131.786-124.465-47.589 40.268-128.125-91.518-95.179 91.518-95.179-40.268-128.125 124.465-47.589 18.304-131.786 131.786 10.982 73.214-109.821 113.482 65.893 113.482-65.893 73.214 109.821 131.786-10.982 18.304 131.786 124.465 47.589-40.268 128.125 91.518 98.84-91.518 95.179 40.268 128.125-124.465 47.589-10.982 128.125-131.786-10.982-73.214 109.821-117.143-65.893-113.482 65.893zM292.857 411.607c0-21.964-14.643-36.607-36.607-36.607s-36.607 14.643-36.607 36.607v0 146.429h-36.607v-146.429c0-40.268 32.946-73.214 73.214-73.214s73.214 32.946 73.214 73.214h-36.607zM512.5 795.983l21.964-62.232h65.893l-54.911-40.268 21.964-62.232-54.911 36.607-54.911-36.607 21.964 62.232-54.911 40.268h65.893zM512.5 283.482l21.964-62.232h65.893l-54.911-40.268 21.964-62.232-54.911 36.607-54.911-36.607 21.964 62.232-54.911 40.268h65.893zM695.536 484.821v0 0c0 40.268-32.946 73.214-73.214 73.214s-73.214-32.946-73.214-73.214v-73.214c0-40.268 32.946-73.214 73.214-73.214s73.214 32.946 73.214 73.214v36.607h-73.214v-36.607h36.607c0-21.964-14.643-36.607-36.607-36.607s-36.607 14.643-36.607 36.607v73.214c0 21.964 14.643 36.607 36.607 36.607s36.607-14.643 36.607-36.607v0h36.607z" />
<glyph unicode="&#xe603;" glyph-name="TheGem-Elementor-Widget-Icon-03" d="M494.197 521.429c29.286 0 54.911-25.625 54.911-54.911s-25.625-54.911-54.911-54.911-54.911 25.625-54.911 54.911 25.625 54.911 54.911 54.911zM494.197 558.035c-51.25 0-91.518-40.268-91.518-91.518s40.268-91.518 91.518-91.518 91.518 40.268 91.518 91.518c0 51.25-40.268 91.518-91.518 91.518v0zM512.5 832.59h-36.607v-311.161h36.607v311.161zM556.429 448.214l-18.304-29.286 172.054-109.821 18.304 29.286-172.054 109.821zM461.25 8.928c-21.964 0-43.929 3.661-65.893 7.321l-7.321-32.946c21.964-3.661 47.589-7.321 73.214-10.982v36.607zM252.59 34.553c21.964-10.982 43.929-21.964 65.893-29.286l10.982 32.946c-21.964 7.321-40.268 18.304-62.232 29.286l-14.643-32.946zM951.786 466.518c0-98.84-29.286-186.696-84.196-263.571 3.661-7.321 21.964-25.625 21.964-29.286 58.571 80.536 95.179 183.036 95.179 289.196 3.661 278.215-219.643 497.857-490.536 497.857-161.071 0-300.179-76.875-391.697-190.357l3.661-54.911 25.625 32.946c80.536 106.161 212.321 175.715 362.411 175.715 252.59 0 457.59-205 457.59-457.59zM58.571 323.75c-7.321 21.964-10.982 43.929-18.304 65.893l-36.607-7.321c3.661-25.625 10.982-47.589 18.304-69.554l36.607 10.982zM212.321 104.107c-18.304 14.643-36.607 29.286-51.25 43.929l-25.625-25.625c18.304-18.304 36.607-32.946 54.911-47.589l21.964 29.286zM117.143 202.946c-14.643 18.304-25.625 36.607-36.607 58.571l-32.946-14.643c10.982-21.964 21.964-43.929 36.607-62.232l32.946 18.304zM32.946 455.535c0 21.964 0 43.929 3.661 69.554l-36.607 3.661c0-25.625 0-47.589 0-73.214h32.946zM717.501 63.839c-18.304-10.982-40.268-21.964-62.232-29.286l10.982-32.946c21.964 7.321 43.929 18.304 65.893 29.286l-14.643 32.946zM823.661 148.035c-14.643-14.643-32.946-32.946-51.25-43.929l21.964-29.286c18.304 14.643 36.607 32.946 54.911 47.589l-25.625 25.625zM589.376 16.249c-21.964-3.661-43.929-7.321-65.893-10.982l3.661-36.607c25.625 0 47.589 3.661 73.214 10.982l-10.982 36.607zM109.821 887.5h-36.607v-183.036h36.607v183.036zM256.25 741.071h-183.036v-36.607h183.036v36.607z" />
<glyph unicode="&#xe604;" glyph-name="TheGem-Elementor-Widget-Icon-04" d="M933.483-27.68h-84.196c-7.321 0-14.643 3.661-18.304 10.982s0 14.643 3.661 18.304l157.411 157.411c3.661 3.661 14.643 7.321 18.304 3.661 7.321-3.661 10.982-10.982 10.982-18.304v-84.196c3.661-47.589-36.607-87.857-87.857-87.857zM893.215 8.928h40.268c29.286 0 54.911 25.625 54.911 54.911v40.268l-95.179-95.179zM402.679 887.5c21.964 0 36.607-14.643 36.607-36.607s-14.643-36.607-36.607-36.607h-329.465c-21.964 0-36.607 14.643-36.607 36.607s14.643 36.607 36.607 36.607h329.465zM402.679 924.108h-329.465c-40.268 0-73.214-32.946-73.214-73.214s32.946-73.214 73.214-73.214h329.465c40.268 0 73.214 32.946 73.214 73.214s-32.946 73.214-73.214 73.214v0zM951.786 887.5c21.964 0 36.607-14.643 36.607-36.607s-14.643-36.607-36.607-36.607h-329.465c-21.964 0-36.607 14.643-36.607 36.607s14.643 36.607 36.607 36.607h329.465zM951.786 924.108h-329.465c-40.268 0-73.214-32.946-73.214-73.214s32.946-73.214 73.214-73.214h329.465c40.268 0 73.214 32.946 73.214 73.214s-32.946 73.214-73.214 73.214v0zM750.447-27.68h-658.929c-51.25 0-91.518 40.268-91.518 91.518v549.107c0 51.25 40.268 91.518 91.518 91.518h841.965c51.25 0 91.518-40.268 91.518-91.518v-366.071c0-10.982-7.321-18.304-18.304-18.304s-18.304 7.321-18.304 18.304v366.071c0 29.286-25.625 54.911-54.911 54.911h-841.965c-29.286 0-54.911-25.625-54.911-54.911v-549.107c0-29.286 25.625-54.911 54.911-54.911h658.929c10.982 0 18.304-7.321 18.304-18.304s-7.321-18.304-18.304-18.304z" />
<glyph unicode="&#xe605;" glyph-name="TheGem-Elementor-Widget-Icon-05" d="M329.465 521.429c21.964 0 36.607-14.643 36.607-36.607v-73.214c0-21.964-14.643-36.607-36.607-36.607s-36.607 14.643-36.607 36.607v73.214c0 21.964 14.643 36.607 36.607 36.607zM329.465 558.035c-40.268 0-73.214-32.946-73.214-73.214v-73.214c0-40.268 32.946-73.214 73.214-73.214s73.214 32.946 73.214 73.214v73.214c0 40.268-32.946 73.214-73.214 73.214v0zM512.5 521.429c21.964 0 36.607-14.643 36.607-36.607v-73.214c0-21.964-14.643-36.607-36.607-36.607s-36.607 14.643-36.607 36.607v73.214c0 21.964 14.643 36.607 36.607 36.607zM512.5 558.035c-40.268 0-73.214-32.946-73.214-73.214v-73.214c0-40.268 32.946-73.214 73.214-73.214s73.214 32.946 73.214 73.214v73.214c0 40.268-32.946 73.214-73.214 73.214v0zM695.536 521.429c21.964 0 36.607-14.643 36.607-36.607v-73.214c0-21.964-14.643-36.607-36.607-36.607s-36.607 14.643-36.607 36.607v73.214c0 21.964 14.643 36.607 36.607 36.607zM695.536 558.035c-40.268 0-73.214-32.946-73.214-73.214v-73.214c0-40.268 32.946-73.214 73.214-73.214s73.214 32.946 73.214 73.214v73.214c0 40.268-32.946 73.214-73.214 73.214v0zM512.5-64.286c-281.875 0-512.5 230.625-512.5 512.5 0 139.107 54.911 270.894 153.75 366.071 7.321 7.321 18.304 7.321 25.625 0s7.321-18.304 0-25.625c-91.518-91.518-142.768-212.321-142.768-340.446 0-263.571 212.321-475.894 475.894-475.894s475.894 212.321 475.894 475.894-212.321 475.894-475.894 475.894c-10.982 0-18.304 7.321-18.304 18.304s7.321 18.304 18.304 18.304c281.875 0 512.5-230.625 512.5-512.5s-230.625-512.5-512.5-512.5zM512.5 63.839c-91.518 0-179.375 32.946-248.929 91.518-7.321 7.321-7.321 18.304-3.661 25.625 7.321 7.321 18.304 7.321 25.625 3.661 62.232-54.911 142.768-84.196 226.965-84.196 190.357 0 347.769 157.411 347.769 347.769s-157.411 347.769-347.769 347.769c-10.982 0-18.304 7.321-18.304 18.304s7.321 18.304 18.304 18.304c212.321 0 384.375-172.054 384.375-384.375s-172.054-384.375-384.375-384.375z" />
<glyph unicode="&#xe606;" glyph-name="TheGem-Elementor-Widget-Icon-06" d="M362.411 887.5v-36.607h314.821c87.857 0 168.393-36.607 226.965-98.84s87.857-146.429 84.196-234.286c-10.982-164.732-153.75-292.857-322.144-292.857h-194.018c-7.321 0-18.304-3.661-25.625-10.982l-215.982-194.018 58.571 172.054c3.661 10.982 3.661 21.964-3.661 29.286-3.661 7.321-14.643 14.643-21.964 18.304-139.107 40.268-230.625 168.393-226.965 311.161 7.321 164.732 153.75 300.179 325.804 300.179v36.607zM362.411 887.5c-190.357 0-355.090-142.768-362.411-333.125-7.321-164.732 102.5-307.5 252.59-347.769 0 0 0 0 0-3.661l-69.554-194.018c-10.982-25.625 3.661-47.589 21.964-47.589 7.321 0 10.982 3.661 18.304 7.321l245.269 223.304h194.018c186.696 0 347.769 139.107 358.75 325.804 14.643 201.34-146.429 369.732-344.107 369.732h-314.821z" />
<glyph unicode="&#xe607;" glyph-name="TheGem-Elementor-Widget-Icon-07" d="M878.572 924.108c40.268 0 73.214-32.946 73.214-73.214v-549.107c0-40.268-32.946-73.214-73.214-73.214h-768.751c-40.268 0-73.214 32.946-73.214 73.214v549.107c0 40.268 32.946 73.214 73.214 73.214h768.751zM878.572 960.715h-768.751c-62.232 0-109.821-47.589-109.821-109.821v-549.107c0-62.232 47.589-109.821 109.821-109.821h768.751c62.232 0 109.821 47.589 109.821 109.821v549.107c0 62.232-47.589 109.821-109.821 109.821v0zM146.429-64.286h-91.518c-10.982 0-18.304 7.321-18.304 18.304s7.321 18.304 18.304 18.304h91.518c18.304 0 36.607 18.304 36.607 36.607v73.214c0 18.304-18.304 36.607-36.607 36.607h-91.518c-10.982 0-18.304 7.321-18.304 18.304s7.321 18.304 18.304 18.304h91.518c40.268 0 73.214-32.946 73.214-73.214v-73.214c0-40.268-32.946-73.214-73.214-73.214zM402.679-64.286h-73.214c-40.268 0-73.214 32.946-73.214 73.214v73.214c0 40.268 32.946 73.214 73.214 73.214h73.214c40.268 0 73.214-32.946 73.214-73.214v-73.214c0-40.268-32.946-73.214-73.214-73.214zM329.465 118.749c-18.304 0-36.607-18.304-36.607-36.607v-73.214c0-18.304 18.304-36.607 36.607-36.607h73.214c18.304 0 36.607 18.304 36.607 36.607v73.214c0 18.304-18.304 36.607-36.607 36.607h-73.214zM658.929-64.286h-73.214c-40.268 0-73.214 32.946-73.214 73.214v73.214c0 40.268 32.946 73.214 73.214 73.214h73.214c40.268 0 73.214-32.946 73.214-73.214v-73.214c0-40.268-32.946-73.214-73.214-73.214zM585.715 118.749c-18.304 0-36.607-18.304-36.607-36.607v-73.214c0-18.304 18.304-36.607 36.607-36.607h73.214c18.304 0 36.607 18.304 36.607 36.607v73.214c0 18.304-18.304 36.607-36.607 36.607h-73.214zM951.786-64.286h-109.821c-40.268 0-73.214 32.946-73.214 73.214v73.214c0 40.268 32.946 73.214 73.214 73.214h109.821c10.982 0 18.304-7.321 18.304-18.304s-7.321-18.304-18.304-18.304h-109.821c-18.304 0-36.607-18.304-36.607-36.607v-73.214c0-18.304 18.304-36.607 36.607-36.607h109.821c10.982 0 18.304-7.321 18.304-18.304s-7.321-18.304-18.304-18.304z" />
<glyph unicode="&#xe608;" glyph-name="TheGem-Elementor-Widget-Icon-08" d="M713.84-64.286h-402.679c-73.214 0-128.125 54.911-128.125 128.125v768.751c0 73.214 54.911 128.125 128.125 128.125h402.679c73.214 0 128.125-54.911 128.125-128.125v-768.751c0-73.214-54.911-128.125-128.125-128.125zM311.161 924.108c-51.25 0-91.518-40.268-91.518-91.518v-768.751c0-51.25 40.268-91.518 91.518-91.518h402.679c51.25 0 91.518 40.268 91.518 91.518v768.751c0 51.25-40.268 91.518-91.518 91.518h-402.679zM915.18 8.928c-7.321 0-14.643 7.321-18.304 14.643-3.661 10.982 3.661 18.304 14.643 21.964 43.929 10.982 76.875 47.589 76.875 91.518v622.322c0 43.929-32.946 84.196-76.875 91.518-10.982 0-18.304 10.982-14.643 21.964 0 10.982 10.982 18.304 21.964 14.643 58.571-7.321 106.161-65.893 106.161-128.125v-622.322c0-62.232-43.929-113.482-106.161-128.125 0 0-3.661 0-3.661 0zM109.821 8.928c0 0-3.661 0-3.661 0-62.232 14.643-106.161 65.893-106.161 128.125v622.322c0 62.232 43.929 113.482 106.161 128.125 10.982 3.661 18.304-3.661 21.964-14.643 0-10.982-3.661-18.304-14.643-21.964-43.929-10.982-76.875-47.589-76.875-91.518v-622.322c0-43.929 32.946-80.536 76.875-91.518 10.982-3.661 14.643-10.982 14.643-21.964-3.661-7.321-10.982-14.643-18.304-14.643z" />
<glyph unicode="&#xe609;" glyph-name="TheGem-Elementor-Widget-Icon-09" d="M970.090 411.607h-970.090v-36.607h970.090c10.982 0 18.304-7.321 18.304-18.304s-7.321-18.304-18.304-18.304h-970.090v-36.607h970.090c29.286 0 54.911 25.625 54.911 54.911s-25.625 54.911-54.911 54.911zM604.019 228.571h-604.019v-36.607h604.019c10.982 0 18.304-7.321 18.304-18.304s-7.321-18.304-18.304-18.304h-604.019v-36.607h604.019c29.286 0 54.911 25.625 54.911 54.911s-25.625 54.911-54.911 54.911zM347.769 777.679h-347.769v-36.607h347.769c10.982 0 18.304-7.321 18.304-18.304s-7.321-18.304-18.304-18.304h-347.769v-36.607h347.769c29.286 0 54.911 25.625 54.911 54.911s-25.625 54.911-54.911 54.911zM750.447 594.643h-750.447v-36.607h750.447c10.982 0 18.304-7.321 18.304-18.304s-7.321-18.304-18.304-18.304h-750.447v-36.607h750.447c29.286 0 54.911 25.625 54.911 54.911s-25.625 54.911-54.911 54.911z" />
<glyph unicode="&#xe60a;" glyph-name="TheGem-Elementor-Widget-Icon-10" d="M263.571 85.803l-40.268 40.268c-7.321 7.321-10.982 14.643-21.964 21.964-3.661 3.661-10.982 10.982-18.304 18.304l-18.304 18.304 14.643 21.964c47.589 73.214 51.25 128.125 51.25 150.090-120.804 7.321-212.321 106.161-212.321 226.965 0 124.465 102.5 226.965 230.625 226.965 120.804 0 219.643-95.179 230.625-223.304v0c0-7.321 0-14.643 0-21.964s0-14.643 0-21.964c0-245.269-157.411-402.679-190.357-431.965l-25.625-25.625zM208.661 191.964c7.321-7.321 10.982-10.982 18.304-18.304 10.982-10.982 18.304-18.304 21.964-21.964l14.643-14.643c32.946 29.286 175.715 179.375 175.715 406.34 0 7.321 0 14.643 0 21.964s0 14.643 0 21.964c-10.982 113.482-87.857 190.357-194.018 190.357s-194.018-84.196-194.018-190.357 87.857-190.357 194.018-190.357h10.982l3.661-14.643c0-3.661 21.964-76.875-51.25-190.357zM798.036 85.803l-40.268 40.268c-7.321 7.321-10.982 14.643-21.964 21.964-3.661 3.661-10.982 10.982-18.304 18.304l-21.964 21.964 18.304 25.625c47.589 73.214 51.25 124.465 51.25 146.429-120.804 7.321-212.321 106.161-212.321 226.965 0 124.465 102.5 226.965 230.625 226.965 120.804 0 219.643-95.179 230.625-223.304v0c0-7.321 0-14.643 0-21.964s0-14.643 0-21.964c0-245.269-157.411-402.679-190.357-431.965l-25.625-29.286zM743.126 191.964c7.321-7.321 10.982-10.982 18.304-14.643 10.982-10.982 18.304-18.304 21.964-21.964l14.643-14.643c32.946 29.286 175.715 179.375 175.715 406.34 0 7.321 0 14.643 0 21.964s0 14.643 0 21.964c-10.982 113.482-87.857 190.357-194.018 190.357s-194.018-84.196-194.018-190.357 87.857-190.357 194.018-190.357h14.643l3.661-14.643c0-7.321 21.964-80.536-54.911-194.018z" />
<glyph unicode="&#xe60b;" glyph-name="TheGem-Elementor-Widget-Icon-11" d="M776.072-64.286h-523.482c-58.571 0-106.161 47.589-106.161 102.5v820.001c0 54.911 47.589 102.5 106.161 102.5h530.804c3.661 0 3.661 0 7.321 0 47.589-7.321 87.857-51.25 87.857-102.5v-816.34c0-58.571-47.589-106.161-102.5-106.161zM252.59 924.108c-40.268 0-69.554-29.286-69.554-65.893v-816.34c0-36.607 29.286-65.893 65.893-65.893h523.482c36.607 0 69.554 29.286 69.554 65.893v816.34c0 36.607-32.946 65.893-69.554 65.893h-519.822zM658.929 82.143h-292.857c-40.268 0-73.214 32.946-73.214 73.214s32.946 73.214 73.214 73.214h292.857c40.268 0 73.214-32.946 73.214-73.214s-32.946-73.214-73.214-73.214zM366.071 191.964c-21.964 0-36.607-14.643-36.607-36.607s14.643-36.607 36.607-36.607h292.857c21.964 0 36.607 14.643 36.607 36.607s-14.643 36.607-36.607 36.607h-292.857zM713.84 631.25h-402.679c-10.982 0-18.304 7.321-18.304 18.304s7.321 18.304 18.304 18.304h402.679c7.321 0 18.304-7.321 18.304-18.304s-10.982-18.304-18.304-18.304zM713.84 741.071h-402.679c-10.982 0-18.304 7.321-18.304 18.304s7.321 18.304 18.304 18.304h402.679c7.321 0 18.304-7.321 18.304-18.304s-10.982-18.304-18.304-18.304zM713.84 521.429h-402.679c-10.982 0-18.304 7.321-18.304 18.304s7.321 18.304 18.304 18.304h402.679c10.982 0 18.304-7.321 18.304-18.304s-10.982-18.304-18.304-18.304zM640.626 411.607h-252.59c-10.982 0-18.304 7.321-18.304 18.304s7.321 18.304 18.304 18.304h252.59c10.982 0 18.304-7.321 18.304-18.304s-7.321-18.304-18.304-18.304z" />
<glyph unicode="&#xe60c;" glyph-name="TheGem-Elementor-Widget-Icon-12" d="M677.232-64.286h-329.465c-51.25 0-91.518 40.268-91.518 91.518s40.268 91.518 91.518 91.518h329.465c51.25 0 91.518-40.268 91.518-91.518s-40.268-91.518-91.518-91.518zM347.769 82.143c-29.286 0-54.911-25.625-54.911-54.911s25.625-54.911 54.911-54.911h329.465c29.286 0 54.911 25.625 54.911 54.911s-25.625 54.911-54.911 54.911h-329.465zM1006.697 301.785h-988.394c-10.982 0-18.304 7.321-18.304 18.304s7.321 18.304 18.304 18.304h988.394c10.982 0 18.304-7.321 18.304-18.304s-7.321-18.304-18.304-18.304zM933.483 191.964h-841.965c-10.982 0-18.304 7.321-18.304 18.304s7.321 18.304 18.304 18.304h841.965c10.982 0 18.304-7.321 18.304-18.304s-7.321-18.304-18.304-18.304zM622.322 473.839c-7.321 0-14.643 3.661-14.643 10.982-3.661 7.321 0 18.304 7.321 25.625 73.214 36.607 117.143 113.482 117.143 194.018 0 120.804-98.84 219.643-219.643 219.643s-219.643-98.84-219.643-219.643c0-80.536 43.929-157.411 117.143-194.018 7.321-3.661 10.982-14.643 7.321-25.625-3.661-7.321-14.643-10.982-25.625-7.321-84.196 43.929-135.446 131.786-135.446 226.965 0 142.768 113.482 256.25 256.25 256.25s256.25-113.482 256.25-256.25c0-95.179-51.25-183.036-139.107-226.965 0 0-3.661-3.661-7.321-3.661zM589.376 580c-3.661 0-7.321 0-7.321 3.661l-69.554 36.607-69.554-36.607c-7.321-3.661-14.643-3.661-18.304 0-7.321 3.661-7.321 10.982-7.321 18.304l14.643 76.875-54.911 54.911c-3.661 3.661-7.321 10.982-3.661 18.304s7.321 10.982 14.643 10.982l76.875 10.982 32.946 69.554c7.321 10.982 25.625 10.982 32.946 0l32.946-69.554 76.875-10.982c7.321 0 10.982-7.321 14.643-10.982 3.661-7.321 0-14.643-3.661-18.304l-54.911-54.911 14.643-76.875c0-7.321 0-14.643-7.321-18.304s-10.982-3.661-14.643-3.661zM512.5 656.875c3.661 0 7.321 0 7.321-3.661l47.589-21.964-7.321 51.25c0 7.321 0 10.982 3.661 14.643l36.607 36.607-51.25 7.321c-7.321 0-10.982 3.661-14.643 10.982l-21.964 43.929-21.964-43.929c-3.661-7.321-7.321-10.982-14.643-10.982l-51.25-7.321 36.607-36.607c3.661-3.661 7.321-10.982 3.661-14.643l-7.321-51.25 43.929 21.964c3.661 3.661 7.321 3.661 10.982 3.661z" />
<glyph unicode="&#xe60d;" glyph-name="TheGem-Elementor-Widget-Icon-13" d="M190.357 382.321c-7.321 0-10.982 3.661-14.643 7.321-95.179 128.125-65.893 303.84 58.571 395.357 7.321 7.321 21.964 3.661 25.625-3.661 7.321-7.321 3.661-18.304-3.661-25.625-51.25-36.607-87.857-95.179-98.84-161.071s7.321-131.786 43.929-183.036c7.321-7.321 3.661-18.304-3.661-25.625 0-3.661-3.661-3.661-7.321-3.661zM988.394-45.982c-3.661 0-10.982 0-14.643 3.661l-289.196 289.196c-21.964 21.964-51.25 21.964-76.875 7.321-76.875-54.911-175.715-76.875-270.894-58.571-150.090 25.625-274.554 146.429-300.179 300.179-18.304 109.821 10.982 219.643 84.196 300.179 76.875 84.196 175.715 128.125 285.536 128.125 186.696-3.661 351.429-157.411 358.75-344.107 3.661-58.571-7.321-113.482-29.286-168.393-3.661-10.982-14.643-14.643-25.625-10.982s-14.643 14.643-10.982 25.625c21.964 47.589 29.286 98.84 25.625 150.090-10.982 168.393-153.75 307.5-325.804 311.161-91.518 0-183.036-40.268-245.269-113.482s-91.518-172.054-76.875-270.894c21.964-135.446 131.786-245.269 270.894-267.232 87.857-14.643 172.054 3.661 241.607 54.911 36.607 25.625 87.857 21.964 120.804-10.982l289.196-289.196c7.321-7.321 7.321-18.304 0-25.625 0-10.982-7.321-10.982-10.982-10.982z" />
<glyph unicode="&#xe60e;" glyph-name="TheGem-Elementor-Widget-Icon-14" d="M933.483-64.286h-841.965c-51.25 0-91.518 40.268-91.518 91.518v841.965c0 51.25 40.268 91.518 91.518 91.518h841.965c51.25 0 91.518-40.268 91.518-91.518v-841.965c0-51.25-40.268-91.518-91.518-91.518zM91.518 924.108c-29.286 0-54.911-25.625-54.911-54.911v-841.965c0-29.286 25.625-54.911 54.911-54.911h841.965c29.286 0 54.911 25.625 54.911 54.911v841.965c0 29.286-25.625 54.911-54.911 54.911h-841.965zM827.322 210.268c-3.661 0-10.982 3.661-14.643 7.321l-215.982 252.59-153.75-146.429c-3.661-3.661-7.321-3.661-14.643-3.661-3.661 0-10.982 3.661-14.643 7.321l-40.268 47.589-164.732-157.411c-7.321-7.321-18.304-7.321-25.625 0s-7.321 18.304 0 25.625l179.375 168.393c3.661 3.661 7.321 7.321 14.643 3.661 3.661 0 10.982-3.661 14.643-7.321l40.268-47.589 153.75 146.429c3.661 3.661 7.321 3.661 14.643 3.661 3.661 0 10.982-3.661 14.643-7.321l226.965-267.232c7.321-7.321 7.321-18.304-3.661-25.625-3.661 0-7.321 0-10.982 0zM366.071 521.429c-62.232 0-109.821 47.589-109.821 109.821s47.589 109.821 109.821 109.821 109.821-47.589 109.821-109.821-47.589-109.821-109.821-109.821zM366.071 704.464c-40.268 0-73.214-32.946-73.214-73.214s32.946-73.214 73.214-73.214 73.214 32.946 73.214 73.214-32.946 73.214-73.214 73.214z" />
<glyph unicode="&#xe60f;" glyph-name="TheGem-Elementor-Widget-Icon-15" d="M695.536 777.679h-36.607v18.304c0 29.286-25.625 54.911-54.911 54.911h-183.036c-29.286 0-54.911-25.625-54.911-54.911v-18.304h-36.607v18.304c0 51.25 40.268 91.518 91.518 91.518h183.036c51.25 0 91.518-40.268 91.518-91.518v-18.304zM1025.001 777.679h-36.607v18.304c0 29.286-25.625 54.911-54.911 54.911h-183.036c-29.286 0-54.911-25.625-54.911-54.911v-18.304h-36.607v18.304c0 51.25 40.268 91.518 91.518 91.518h183.036c51.25 0 91.518-40.268 91.518-91.518v-18.304zM933.483 45.535h-841.965c-51.25 0-91.518 40.268-91.518 91.518v658.929c0 51.25 40.268 91.518 91.518 91.518h183.036c51.25 0 91.518-40.268 91.518-91.518v-54.911h567.411c51.25 0 91.518-40.268 91.518-91.518v-512.5c0-51.25-40.268-91.518-91.518-91.518zM91.518 850.893c-29.286 0-54.911-25.625-54.911-54.911v-658.929c0-29.286 25.625-54.911 54.911-54.911h841.965c29.286 0 54.911 25.625 54.911 54.911v512.5c0 29.286-25.625 54.911-54.911 54.911h-585.715c-10.982 0-18.304 7.321-18.304 18.304v73.214c0 29.286-25.625 54.911-54.911 54.911h-183.036zM787.055 484.821h-549.107c-10.982 0-18.304 7.321-18.304 18.304s7.321 18.304 18.304 18.304h549.107c10.982 0 18.304-7.321 18.304-18.304s-7.321-18.304-18.304-18.304zM787.055 375h-549.107c-10.982 0-18.304 7.321-18.304 18.304s7.321 18.304 18.304 18.304h549.107c10.982 0 18.304-7.321 18.304-18.304s-7.321-18.304-18.304-18.304zM787.055 265.178h-549.107c-10.982 0-18.304 7.321-18.304 18.304s7.321 18.304 18.304 18.304h549.107c10.982 0 18.304-7.321 18.304-18.304s-7.321-18.304-18.304-18.304z" />
<glyph unicode="&#xe610;" glyph-name="TheGem-Elementor-Widget-Icon-16" d="M512.5 594.643c-102.5 0-183.036 80.536-183.036 183.036s80.536 183.036 183.036 183.036 183.036-80.536 183.036-183.036-80.536-183.036-183.036-183.036zM512.5 924.108c-80.536 0-146.429-65.893-146.429-146.429s65.893-146.429 146.429-146.429 146.429 65.893 146.429 146.429-65.893 146.429-146.429 146.429zM860.269 521.429c-69.554 0-128.125 58.571-128.125 128.125s58.571 128.125 128.125 128.125 128.125-58.571 128.125-128.125-58.571-128.125-128.125-128.125zM860.269 741.071c-51.25 0-91.518-40.268-91.518-91.518s40.268-91.518 91.518-91.518 91.518 40.268 91.518 91.518-40.268 91.518-91.518 91.518zM750.447-64.286c-10.982 0-18.304 7.321-18.304 18.304v311.161c0 120.804-98.84 219.643-219.643 219.643s-219.643-98.84-219.643-219.643v-311.161c0-10.982-7.321-18.304-18.304-18.304s-18.304 7.321-18.304 18.304v311.161c0 142.768 113.482 256.25 256.25 256.25s256.25-113.482 256.25-256.25v-311.161c0-10.982-7.321-18.304-18.304-18.304zM1006.697 8.928c-10.982 0-18.304 7.321-18.304 18.304v256.25c0 69.554-58.571 128.125-128.125 128.125-18.304 0-32.946-3.661-47.589-10.982-10.982-3.661-18.304 0-25.625 10.982-3.661 10.982 0 18.304 10.982 25.625 18.304 7.321 40.268 10.982 62.232 10.982 91.518 0 164.732-73.214 164.732-164.732v-256.25c0-10.982-7.321-18.304-18.304-18.304zM164.732 521.429c-69.554 0-128.125 58.571-128.125 128.125s58.571 128.125 128.125 128.125 128.125-58.571 128.125-128.125-58.571-128.125-128.125-128.125zM164.732 741.071c-51.25 0-91.518-40.268-91.518-91.518s40.268-91.518 91.518-91.518 91.518 40.268 91.518 91.518-40.268 91.518-91.518 91.518zM18.304 8.928c-10.982 0-18.304 7.321-18.304 18.304v256.25c0 91.518 73.214 164.732 164.732 164.732 21.964 0 43.929-3.661 62.232-10.982 10.982-3.661 14.643-14.643 10.982-25.625s-14.643-14.643-25.625-10.982c-14.643 7.321-29.286 10.982-47.589 10.982-69.554 0-128.125-58.571-128.125-128.125v-256.25c0-10.982-7.321-18.304-18.304-18.304z" />
<glyph unicode="&#xe611;" glyph-name="TheGem-Elementor-Widget-Icon-17" d="M684.555-64.286h-380.715c-65.893 0-120.804 54.911-120.804 120.804v783.394c0 65.893 54.911 120.804 120.804 120.804h380.715c65.893 0 120.804-54.911 120.804-120.804v-783.394c0-65.893-54.911-120.804-120.804-120.804zM303.84 924.108c-47.589 0-84.196-36.607-84.196-84.196v-783.394c0-47.589 36.607-84.196 84.196-84.196h380.715c47.589 0 84.196 36.607 84.196 84.196v783.394c0 47.589-40.268 84.196-84.196 84.196h-380.715zM768.751 741.071h-549.107c-10.982 0-18.304 7.321-18.304 18.304s7.321 18.304 18.304 18.304h549.107c10.982 0 18.304-7.321 18.304-18.304s-10.982-18.304-18.304-18.304zM970.090 631.25h-109.821c-10.982 0-18.304 7.321-18.304 18.304s7.321 18.304 18.304 18.304h109.821c10.982 0 18.304-7.321 18.304-18.304s-7.321-18.304-18.304-18.304zM867.59 8.928h-7.321c-10.982 0-18.304 7.321-18.304 18.304s7.321 18.304 18.304 18.304h7.321c47.589 0 84.196 36.607 84.196 84.196v563.751c0 47.589-40.268 84.196-84.196 84.196h-7.321c-10.982 0-18.304 7.321-18.304 18.304s7.321 18.304 18.304 18.304h7.321c65.893 0 120.804-54.911 120.804-120.804v-563.751c0-65.893-54.911-120.804-120.804-120.804zM128.125 631.25h-109.821c-10.982 0-18.304 7.321-18.304 18.304s7.321 18.304 18.304 18.304h109.821c10.982 0 18.304-7.321 18.304-18.304s-7.321-18.304-18.304-18.304zM128.125 8.928h-7.321c-65.893 0-120.804 54.911-120.804 120.804v563.751c0 65.893 54.911 120.804 120.804 120.804h7.321c10.982 0 18.304-7.321 18.304-18.304s-7.321-18.304-18.304-18.304h-7.321c-47.589 0-84.196-36.607-84.196-84.196v-563.751c0-47.589 36.607-84.196 84.196-84.196h7.321c10.982 0 18.304-7.321 18.304-18.304s-7.321-18.304-18.304-18.304zM494.197 118.749c-69.554 0-128.125 58.571-128.125 128.125 0 10.982 7.321 18.304 18.304 18.304s18.304-7.321 18.304-18.304c0-51.25 40.268-91.518 91.518-91.518s91.518 40.268 91.518 91.518-40.268 91.518-91.518 91.518c-10.982 0-18.304 7.321-18.304 18.304s7.321 18.304 18.304 18.304c69.554 0 128.125-58.571 128.125-128.125s-58.571-128.125-128.125-128.125zM494.197 338.393c-69.554 0-128.125 58.571-128.125 128.125s58.571 128.125 128.125 128.125 128.125-58.571 128.125-128.125c0-10.982-7.321-18.304-18.304-18.304s-18.304 7.321-18.304 18.304c0 51.25-40.268 91.518-91.518 91.518s-91.518-40.268-91.518-91.518 40.268-91.518 91.518-91.518c10.982 0 18.304-7.321 18.304-18.304s-7.321-18.304-18.304-18.304zM494.197 558.035c-10.982 0-18.304 7.321-18.304 18.304v54.911c0 10.982 7.321 18.304 18.304 18.304s18.304-7.321 18.304-18.304v-54.911c0-10.982-7.321-18.304-18.304-18.304zM494.197 63.839c-10.982 0-18.304 7.321-18.304 18.304v54.911c0 10.982 7.321 18.304 18.304 18.304s18.304-7.321 18.304-18.304v-54.911c0-10.982-7.321-18.304-18.304-18.304z" />
<glyph unicode="&#xe612;" glyph-name="TheGem-Elementor-Widget-Icon-18" d="M918.84 118.749h-812.68c-58.571 0-106.161 47.589-106.161 106.161v369.732c0 10.982 7.321 18.304 18.304 18.304s18.304-7.321 18.304-18.304v-369.732c0-36.607 29.286-69.554 69.554-69.554h816.34c36.607 0 69.554 29.286 69.554 69.554v369.732c0 10.982 7.321 18.304 18.304 18.304s14.643-7.321 14.643-18.304v-369.732c0-58.571-47.589-106.161-106.161-106.161zM512.5 385.982c-32.946 0-69.554 10.982-98.84 29.286l-391.697 278.215c-18.304 10.982-25.625 32.946-18.304 51.25 7.321 21.964 25.625 32.946 43.929 32.946h926.161c21.964 0 36.607-10.982 43.929-32.946 7.321-18.304 0-40.268-18.304-51.25l-391.697-278.215c-25.625-18.304-62.232-29.286-95.179-29.286zM47.589 741.071c-3.661 0-7.321-3.661-7.321-7.321s0-7.321 3.661-10.982l391.697-274.554c47.589-32.946 106.161-32.946 153.75 0l391.697 278.215c3.661 3.661 3.661 7.321 3.661 10.982s-3.661 7.321-10.982 7.321h-926.161zM896.876 213.928c-3.661 0-7.321 0-10.982 3.661l-208.661 146.429c-7.321 7.321-10.982 18.304-3.661 25.625s18.304 10.982 25.625 3.661l208.661-146.429c7.321-7.321 10.982-18.304 3.661-25.625-3.661-3.661-7.321-7.321-14.643-7.321zM128.125 213.928c-7.321 0-10.982 3.661-14.643 7.321-7.321 7.321-3.661 18.304 3.661 25.625l208.661 146.429c7.321 7.321 18.304 3.661 25.625-3.661s3.661-18.304-3.661-25.625l-208.661-146.429c-3.661-3.661-7.321-3.661-10.982-3.661z" />
<glyph unicode="&#xe613;" glyph-name="TheGem-Elementor-Widget-Icon-19" d="M278.215 631.25c-7.321 0-10.982 0-14.643 3.661-7.321 7.321-7.321 18.304 0 25.625 36.607 40.268 80.536 73.214 135.446 95.179 10.982 3.661 18.304 0 21.964-10.982s0-18.304-10.982-21.964c-47.589-18.304-87.857-47.589-120.804-84.196-3.661-3.661-7.321-7.321-10.982-7.321zM754.107 623.929c-3.661 0-10.982 3.661-14.643 7.321-29.286 36.607-69.554 69.554-117.143 87.857-10.982 3.661-14.643 14.643-10.982 25.625s14.643 14.643 25.625 10.982c51.25-21.964 95.179-54.911 131.786-98.84 7.321-10.982 7.321-25.625 0-29.286-3.661-3.661-7.321-3.661-14.643-3.661zM768.751 254.196c-3.661 0-7.321 0-10.982 3.661-7.321 7.321-10.982 18.304-3.661 25.625 29.286 40.268 43.929 87.857 51.25 135.446 0 10.982 10.982 18.304 18.304 14.643 10.982 0 18.304-10.982 14.643-18.304-7.321-54.911-25.625-109.821-54.911-153.75-3.661-3.661-10.982-7.321-14.643-7.321zM512.5 118.749c-25.625 0-54.911 3.661-80.536 10.982-10.982 3.661-14.643 10.982-14.643 21.964 3.661 10.982 10.982 14.643 21.964 14.643 47.589-10.982 98.84-10.982 146.429 0 10.982 3.661 18.304-3.661 21.964-14.643s-3.661-18.304-14.643-21.964c-25.625-7.321-51.25-10.982-80.536-10.982zM248.929 265.178c-7.321 0-10.982 3.661-14.643 7.321-29.286 47.589-47.589 102.5-51.25 157.411 0 10.982 7.321 18.304 18.304 18.304s18.304-7.321 18.304-18.304c3.661-47.589 18.304-95.179 43.929-139.107 3.661-7.321 3.661-18.304-7.321-25.625 0 0-3.661 0-7.321 0zM457.59-24.018c0 0 0 0 0 0-241.607 29.286-420.982 230.625-420.982 472.232s179.375 442.947 417.322 472.232c10.982 0 18.304-7.321 21.964-14.643 0-10.982-7.321-18.304-14.643-21.964-223.304-25.625-388.036-212.321-388.036-435.625s164.732-410 388.036-435.625c10.982 0 18.304-10.982 14.643-21.964 0-7.321-7.321-14.643-18.304-14.643zM567.411-24.018c-7.321 0-18.304 7.321-18.304 14.643 0 10.982 7.321 18.304 14.643 21.964 223.304 25.625 388.036 212.321 388.036 435.625s-164.732 410-388.036 435.625c-10.982 0-18.304 10.982-14.643 21.964 0 10.982 10.982 18.304 21.964 14.643 237.946-29.286 417.322-230.625 417.322-472.232s-179.375-442.947-420.982-472.232c0 0 0 0 0 0zM717.501 148.035c-3.661 0-7.321 0-10.982 3.661l-194.018 142.768-194.018-139.107c-7.321-3.661-14.643-3.661-21.964 0-3.661 0-7.321 10.982-7.321 18.304l73.214 226.965-194.018 139.107c-7.321 3.661-7.321 14.643-7.321 21.964 3.661 7.321 10.982 10.982 18.304 10.982h237.946l73.214 226.965c3.661 14.643 29.286 14.643 36.607 0l73.214-226.965h241.607c7.321 0 14.643-3.661 18.304-10.982s0-14.643-7.321-21.964l-194.018-139.107 73.214-226.965c3.661-7.321 0-14.643-7.321-21.964 0 0-3.661-3.661-7.321-3.661zM512.5 334.732c3.661 0 7.321 0 10.982-3.661l157.411-113.482-58.571 183.036c-3.661 7.321 0 14.643 7.321 21.964l157.411 113.482h-197.679c-7.321 0-14.643 3.661-18.304 10.982l-58.571 190.357-62.232-186.696c-3.661-7.321-10.982-10.982-18.304-10.982h-194.018l157.411-113.482c7.321-3.661 7.321-14.643 7.321-21.964l-62.232-186.696 157.411 113.482c7.321 0 10.982 3.661 14.643 3.661z" />
<glyph unicode="&#xe614;" glyph-name="TheGem-Elementor-Widget-Icon-20" d="M1006.697 795.983c-10.982 0-18.304 7.321-18.304 18.304v18.304c0 51.25-40.268 91.518-91.518 91.518h-768.751c-51.25 0-91.518-40.268-91.518-91.518v-18.304c0-10.982-7.321-18.304-18.304-18.304s-18.304 7.321-18.304 18.304v18.304c0 73.214 54.911 128.125 128.125 128.125h768.751c73.214 0 128.125-54.911 128.125-128.125v-18.304c0-10.982-7.321-18.304-18.304-18.304zM896.876-27.68h-768.751c-73.214 0-128.125 54.911-128.125 128.125v18.304c0 10.982 7.321 18.304 18.304 18.304s18.304-7.321 18.304-18.304v-18.304c0-51.25 40.268-91.518 91.518-91.518h768.751c51.25 0 91.518 40.268 91.518 91.518v18.304c0 10.982 7.321 18.304 18.304 18.304s18.304-7.321 18.304-18.304v-18.304c0-73.214-54.911-128.125-128.125-128.125zM21.964 539.733c-7.321 7.321-7.321 18.304 0 21.964l62.232 62.232c3.661 7.321 10.982 7.321 18.304 3.661 7.321 0 10.982-7.321 10.982-14.643v-296.519c0-10.982-7.321-14.643-14.643-14.643-10.982 0-14.643 7.321-14.643 14.643 0 0 0 197.679 0 256.25-18.304-18.304-32.946-32.946-32.946-32.946-10.982-7.321-21.964-7.321-29.286 0zM223.304 590.983c10.982 18.304 25.625 29.286 47.589 36.607 18.304 3.661 40.268 3.661 58.571-7.321s32.946-25.625 36.607-43.929c7.321-18.304 3.661-40.268-7.321-58.571 0 0-76.875-142.768-95.179-179.375 32.946 0 87.857 0 87.857 0 7.321 0 14.643-7.321 14.643-14.643s-3.661-21.964-14.643-21.964h-113.482c-7.321 0-10.982 3.661-14.643 7.321s-3.661 10.982 0 14.643l106.161 208.661c7.321 10.982 7.321 21.964 3.661 32.946s-10.982 21.964-21.964 25.625c-7.321 7.321-21.964 7.321-32.946 3.661s-21.964-10.982-25.625-21.964c-3.661-7.321-14.643-10.982-21.964-7.321s-10.982 18.304-7.321 25.625zM541.786 378.66v29.286c0 25.625-21.964 43.929-43.929 43.929-10.982 0-14.643 7.321-14.643 14.643s7.321 14.643 14.643 14.643c25.625 0 43.929 18.304 43.929 43.929v21.964c0 21.964-14.643 40.268-32.946 43.929s-40.268-3.661-51.25-21.964c-3.661-7.321-14.643-10.982-21.964-7.321s-10.982 14.643-7.321 21.964c18.304 29.286 54.911 43.929 87.857 36.607 32.946-10.982 58.571-40.268 58.571-76.875v-21.964c0-25.625-10.982-47.589-29.286-62.232 18.304-14.643 29.286-36.607 29.286-62.232v-29.286c0-36.607-21.964-65.893-58.571-76.875-32.946-10.982-69.554 7.321-87.857 36.607-3.661 7.321 0 18.304 7.321 21.964s18.304 0 21.964-7.321c10.982-18.304 29.286-25.625 51.25-21.964 18.304 18.304 32.946 36.607 32.946 58.571zM640.626 378.66c-3.661 3.661-3.661 10.982-3.661 14.643l73.214 226.965c3.661 7.321 10.982 10.982 21.964 7.321 7.321-3.661 10.982-7.321 10.982-14.643 0 0 0-3.661 0-3.661s-54.911-168.393-65.893-205c14.643 0 40.268 0 62.232 0v54.911c0 10.982 7.321 14.643 14.643 14.643s14.643-7.321 14.643-14.643v-54.911c14.643 0 25.625 0 25.625 0 10.982 0 14.643-7.321 14.643-14.643s-7.321-14.643-14.643-14.643h-25.625v-54.911c0-10.982-7.321-14.643-14.643-14.643s-14.643 7.321-14.643 14.643v54.911h-87.857c-3.661-3.661-7.321 0-10.982 3.661zM867.59 466.518v146.429c0 10.982 7.321 14.643 14.643 14.643h106.161c10.982 0 14.643-7.321 14.643-14.643 0-10.982-7.321-14.643-14.643-14.643h-91.518c0-21.964 0-62.232 0-91.518 18.304 10.982 36.607 10.982 58.571 7.321 32.946-10.982 58.571-40.268 58.571-76.875v-54.911c0-36.607-21.964-65.893-58.571-76.875-32.946-10.982-69.554 7.321-87.857 36.607-3.661 7.321 0 18.304 7.321 21.964s18.304 0 21.964-7.321c10.982-18.304 29.286-25.625 51.25-21.964 18.304 3.661 32.946 21.964 32.946 43.929v54.911c0 21.964-14.643 36.607-32.946 43.929-18.304 3.661-40.268-3.661-51.25-21.964-3.661-7.321-10.982-7.321-18.304-7.321-7.321 3.661-10.982 7.321-10.982 18.304z" />
<glyph unicode="&#xe615;" glyph-name="TheGem-Elementor-Widget-Icon-21" d="M896.876 155.357h-768.751c-73.214 0-128.125 54.911-128.125 128.125v366.071c0 73.214 54.911 128.125 128.125 128.125h768.751c73.214 0 128.125-54.911 128.125-128.125v-366.071c0-73.214-54.911-128.125-128.125-128.125zM128.125 741.071c-51.25 0-91.518-40.268-91.518-91.518v-366.071c0-51.25 40.268-91.518 91.518-91.518h768.751c51.25 0 91.518 40.268 91.518 91.518v366.071c0 51.25-40.268 91.518-91.518 91.518h-768.751zM787.055 448.214h-186.696c-10.982 0-18.304 7.321-18.304 18.304s7.321 18.304 18.304 18.304h186.696c10.982 0 18.304-7.321 18.304-18.304s-7.321-18.304-18.304-18.304zM787.055 558.035h-186.696c-10.982 0-18.304 7.321-18.304 18.304s7.321 18.304 18.304 18.304h186.696c10.982 0 18.304-7.321 18.304-18.304s-7.321-18.304-18.304-18.304zM787.055 338.393h-186.696c-10.982 0-18.304 7.321-18.304 18.304s7.321 18.304 18.304 18.304h186.696c10.982 0 18.304-7.321 18.304-18.304s-7.321-18.304-18.304-18.304zM406.34 301.785c-3.661 0-7.321 0-10.982 3.661l-80.536 58.571-80.536-58.571c-7.321-3.661-14.643-3.661-21.964 0s-10.982 10.982-7.321 21.964l29.286 98.84-80.536 58.571c-7.321 0-7.321 7.321-7.321 18.304 3.661 7.321 10.982 10.982 18.304 10.982h98.84l32.946 98.84c3.661 14.643 29.286 14.643 32.946 0l32.946-98.84h98.84c7.321 0 14.643-3.661 18.304-10.982s0-14.643-7.321-21.964l-80.536-58.571 29.286-98.84c3.661-7.321 0-14.643-7.321-21.964 0 0-3.661 0-7.321 0zM314.821 404.285c3.661 0 7.321 0 10.982-3.661l47.589-32.946-18.304 58.571c-3.661 7.321 0 14.643 7.321 18.304l43.929 32.946h-54.911c-7.321 0-14.643 3.661-18.304 10.982l-18.304 58.571-18.304-58.571c-3.661-7.321-10.982-10.982-18.304-10.982h-54.911l43.929-32.946c7.321-3.661 7.321-10.982 7.321-18.304l-18.304-58.571 47.589 32.946c3.661 3.661 7.321 3.661 10.982 3.661z" />
<glyph unicode="&#xe616;" glyph-name="TheGem-Elementor-Widget-Icon-22" d="M896.876 301.785h-475.894c-47.589 0-91.518 21.964-109.821 62.232-25.625 51.25-109.821 65.893-113.482 69.554-7.321 0-14.643 3.661-14.643 14.643 0 7.321 3.661 14.643 14.643 18.304 25.625 7.321 91.518 32.946 113.482 65.893 21.964 40.268 65.893 62.232 109.821 62.232h475.894c73.214 0 128.125-54.911 128.125-128.125v-36.607c0-73.214-54.911-128.125-128.125-128.125zM259.911 448.214c29.286-14.643 65.893-36.607 84.196-69.554 14.643-25.625 43.929-40.268 80.536-40.268h475.894c51.25 0 91.518 40.268 91.518 91.518v36.607c0 51.25-40.268 91.518-91.518 91.518h-475.894c-32.946 0-62.232-18.304-80.536-43.929-18.304-29.286-54.911-51.25-84.196-65.893zM860.269 429.91h-402.679c-10.982 0-18.304 7.321-18.304 18.304s7.321 18.304 18.304 18.304h402.679c10.982 0 18.304-7.321 18.304-18.304s-7.321-18.304-18.304-18.304zM640.626 795.983h-186.696c-10.982 0-18.304 7.321-18.304 18.304s7.321 18.304 18.304 18.304h186.696c10.982 0 18.304-7.321 18.304-18.304s-7.321-18.304-18.304-18.304zM91.518 356.696c-51.25 0-91.518 40.268-91.518 91.518s40.268 91.518 91.518 91.518 91.518-40.268 91.518-91.518c0-51.25-40.268-91.518-91.518-91.518zM91.518 503.125c-29.286 0-54.911-25.625-54.911-54.911s25.625-54.911 54.911-54.911 54.911 25.625 54.911 54.911-25.625 54.911-54.911 54.911zM677.232 667.858h-256.25c-47.589 0-91.518 21.964-109.821 62.232-25.625 47.589-113.482 65.893-113.482 65.893-7.321 3.661-14.643 7.321-14.643 18.304 0 7.321 3.661 14.643 14.643 18.304 21.964 7.321 91.518 29.286 113.482 65.893 21.964 40.268 65.893 62.232 109.821 62.232h256.25c73.214 0 128.125-54.911 128.125-128.125v-36.607c0-73.214-54.911-128.125-128.125-128.125zM259.911 814.286c29.286-14.643 65.893-36.607 84.196-69.554 10.982-25.625 40.268-40.268 76.875-40.268h256.25c51.25 0 91.518 40.268 91.518 91.518v36.607c0 51.25-40.268 91.518-91.518 91.518h-256.25c-32.946 0-62.232-18.304-80.536-43.929-14.643-29.286-51.25-51.25-80.536-65.893zM91.518 722.768c-51.25 0-91.518 40.268-91.518 91.518s40.268 91.518 91.518 91.518 91.518-40.268 91.518-91.518-40.268-91.518-91.518-91.518zM91.518 869.196c-29.286 0-54.911-25.625-54.911-54.911s25.625-54.911 54.911-54.911 54.911 25.625 54.911 54.911-25.625 54.911-54.911 54.911zM750.447 63.839h-296.519c-10.982 0-18.304 7.321-18.304 18.304s7.321 18.304 18.304 18.304h296.519c10.982 0 18.304-7.321 18.304-18.304s-7.321-18.304-18.304-18.304zM787.055-64.286h-366.071c-47.589 0-91.518 21.964-109.821 62.232-25.625 51.25-109.821 65.893-113.482 69.554-7.321 0-14.643 3.661-14.643 14.643 0 7.321 3.661 14.643 14.643 18.304 25.625 7.321 91.518 32.946 113.482 65.893 21.964 40.268 65.893 62.232 109.821 62.232h366.071c73.214 0 128.125-54.911 128.125-128.125v-36.607c0-73.214-54.911-128.125-128.125-128.125zM259.911 82.143c29.286-14.643 65.893-36.607 84.196-69.554 14.643-25.625 43.929-40.268 80.536-40.268h366.071c51.25 0 91.518 40.268 91.518 91.518v36.607c0 51.25-40.268 91.518-91.518 91.518h-366.071c-32.946 0-62.232-18.304-80.536-43.929-18.304-29.286-54.911-51.25-84.196-65.893zM91.518-9.376c-51.25 0-91.518 40.268-91.518 91.518s40.268 91.518 91.518 91.518 91.518-40.268 91.518-91.518-40.268-91.518-91.518-91.518zM91.518 137.053c-29.286 0-54.911-25.625-54.911-54.911s25.625-54.911 54.911-54.911 54.911 25.625 54.911 54.911-25.625 54.911-54.911 54.911zM91.518 869.196c-10.982 0-18.304 7.321-18.304 18.304v54.911c0 10.982 7.321 18.304 18.304 18.304s18.304-7.321 18.304-18.304v-54.911c0-10.982-7.321-18.304-18.304-18.304zM91.518-64.286c-10.982 0-18.304 7.321-18.304 18.304v54.911c0 10.982 7.321 18.304 18.304 18.304s18.304-7.321 18.304-18.304v-54.911c0-10.982-7.321-18.304-18.304-18.304zM91.518 503.125c-10.982 0-18.304 7.321-18.304 18.304v219.643c0 10.982 7.321 18.304 18.304 18.304s18.304-7.321 18.304-18.304v-219.643c0-10.982-7.321-18.304-18.304-18.304zM91.518 137.053c-10.982 0-18.304 7.321-18.304 18.304v219.643c0 10.982 7.321 18.304 18.304 18.304s18.304-7.321 18.304-18.304v-219.643c0-10.982-7.321-18.304-18.304-18.304z" />
<glyph unicode="&#xe617;" glyph-name="TheGem-Elementor-Widget-Icon-23" d="M750.447 338.393h-475.894c-32.946 0-54.911 21.964-54.911 54.911v439.286c0 32.946 21.964 54.911 54.911 54.911h475.894c32.946 0 54.911-21.964 54.911-54.911v-439.286c0-32.946-21.964-54.911-54.911-54.911zM274.554 850.893c-10.982 0-18.304-7.321-18.304-18.304v-439.286c0-10.982 7.321-18.304 18.304-18.304h475.894c10.982 0 18.304 7.321 18.304 18.304v439.286c0 10.982-7.321 18.304-18.304 18.304h-475.894zM750.447 45.535h-475.894c-32.946 0-54.911 21.964-54.911 54.911v164.732c0 10.982 7.321 18.304 18.304 18.304s18.304-7.321 18.304-18.304v-164.732c0-10.982 7.321-18.304 18.304-18.304h475.894c10.982 0 18.304 7.321 18.304 18.304v164.732c0 10.982 7.321 18.304 18.304 18.304s18.304-7.321 18.304-18.304v-164.732c0-32.946-21.964-54.911-54.911-54.911zM604.019 155.357h-256.25c-10.982 0-18.304 7.321-18.304 18.304s7.321 18.304 18.304 18.304h256.25c10.982 0 18.304-7.321 18.304-18.304s-7.321-18.304-18.304-18.304zM494.197 228.571h-146.429c-10.982 0-18.304 7.321-18.304 18.304s7.321 18.304 18.304 18.304h146.429c10.982 0 18.304-7.321 18.304-18.304s-7.321-18.304-18.304-18.304zM933.483 375c-3.661 0-10.982 0-14.643 3.661-7.321 7.321-7.321 18.304 0 25.625l58.571 58.571-58.571 58.571c-7.321 7.321-7.321 18.304 0 25.625s18.304 7.321 25.625 0l73.214-73.214c7.321-7.321 7.321-18.304 0-25.625l-73.214-73.214c0 0-7.321 0-10.982 0zM91.518 375c-3.661 0-10.982 0-14.643 3.661l-73.214 73.214c-7.321 7.321-7.321 18.304 0 25.625l73.214 73.214c7.321 7.321 18.304 7.321 25.625 0s7.321-18.304 0-25.625l-58.571-58.571 58.571-58.571c7.321-7.321 7.321-18.304 0-25.625 0-7.321-7.321-7.321-10.982-7.321zM362.411 543.393l-25.625 25.625 73.214 73.214c7.321 7.321 18.304 7.321 25.625 0l25.625-25.625 95.179 80.536c7.321 7.321 18.304 3.661 25.625-3.661l109.821-128.125-29.286-25.625-98.84 113.482-95.179-80.536c-7.321-7.321-18.304-7.321-25.625 0l-21.964 21.964-58.571-51.25z" />
<glyph unicode="&#xe618;" glyph-name="TheGem-Elementor-Widget-Icon-24" d="M164.732 320.089c-10.982 0-18.304 7.321-18.304 18.304v219.643c0 10.982 7.321 18.304 18.304 18.304s18.304-7.321 18.304-18.304v-219.643c0-10.982-7.321-18.304-18.304-18.304zM823.661-64.286h-622.322c-32.946 0-54.911 21.964-54.911 54.911v237.946c0 10.982 7.321 18.304 18.304 18.304s18.304-7.321 18.304-18.304v-237.946c0-10.982 7.321-18.304 18.304-18.304h622.322c10.982 0 18.304 7.321 18.304 18.304v237.946c0 10.982 7.321 18.304 18.304 18.304s18.304-7.321 18.304-18.304v-237.946c0-32.946-21.964-54.911-54.911-54.911zM860.269 320.089c-10.982 0-18.304 7.321-18.304 18.304v219.643c0 10.982 7.321 18.304 18.304 18.304s18.304-7.321 18.304-18.304v-219.643c0-10.982-7.321-18.304-18.304-18.304zM860.269 649.554c-10.982 0-18.304 7.321-18.304 18.304v237.946c0 10.982-7.321 18.304-18.304 18.304h-622.322c-10.982 0-18.304-7.321-18.304-18.304v-237.946c0-10.982-7.321-18.304-18.304-18.304s-18.304 7.321-18.304 18.304v237.946c0 32.946 21.964 54.911 54.911 54.911h622.322c32.946 0 54.911-21.964 54.911-54.911v-237.946c0-10.982-7.321-18.304-18.304-18.304zM384.375 704.464h-109.821c-10.982 0-18.304 7.321-18.304 18.304v109.821c0 10.982 7.321 18.304 18.304 18.304h109.821c10.982 0 18.304-7.321 18.304-18.304v-109.821c0-10.982-7.321-18.304-18.304-18.304zM292.857 741.071h73.214v73.214h-73.214v-73.214zM750.447 777.679h-256.25c-10.982 0-18.304 7.321-18.304 18.304s7.321 18.304 18.304 18.304h256.25c10.982 0 18.304-7.321 18.304-18.304s-7.321-18.304-18.304-18.304zM750.447 594.643h-475.894c-10.982 0-18.304 7.321-18.304 18.304s7.321 18.304 18.304 18.304h475.894c10.982 0 18.304-7.321 18.304-18.304s-7.321-18.304-18.304-18.304zM384.375 375h-109.821c-10.982 0-18.304 7.321-18.304 18.304v109.821c0 10.982 7.321 18.304 18.304 18.304h109.821c10.982 0 18.304-7.321 18.304-18.304v-109.821c0-10.982-7.321-18.304-18.304-18.304zM292.857 411.607h73.214v73.214h-73.214v-73.214zM750.447 448.214h-256.25c-10.982 0-18.304 7.321-18.304 18.304s7.321 18.304 18.304 18.304h256.25c10.982 0 18.304-7.321 18.304-18.304s-7.321-18.304-18.304-18.304zM750.447 265.178h-475.894c-10.982 0-18.304 7.321-18.304 18.304s7.321 18.304 18.304 18.304h475.894c10.982 0 18.304-7.321 18.304-18.304s-7.321-18.304-18.304-18.304zM384.375 45.535h-109.821c-10.982 0-18.304 7.321-18.304 18.304v109.821c0 10.982 7.321 18.304 18.304 18.304h109.821c10.982 0 18.304-7.321 18.304-18.304v-109.821c0-10.982-7.321-18.304-18.304-18.304zM292.857 82.143h73.214v73.214h-73.214v-73.214zM750.447 118.749h-256.25c-10.982 0-18.304 7.321-18.304 18.304s7.321 18.304 18.304 18.304h256.25c10.982 0 18.304-7.321 18.304-18.304s-7.321-18.304-18.304-18.304z" />
<glyph unicode="&#xe619;" glyph-name="TheGem-Elementor-Widget-Icon-25" d="M933.483 704.464c-10.982 0-18.304 7.321-18.304 18.304v32.946c0 51.25-43.929 95.179-95.179 95.179h-615.001c-51.25 0-95.179-43.929-95.179-95.179v-32.946c0-10.982-7.321-18.304-18.304-18.304s-18.304 7.321-18.304 18.304v32.946c0 73.214 58.571 131.786 131.786 131.786h615.001c73.214 0 131.786-58.571 131.786-131.786v-32.946c0-10.982-7.321-18.304-18.304-18.304zM820.001 45.535h-615.001c-73.214 0-131.786 58.571-131.786 131.786v32.946c0 10.982 7.321 18.304 18.304 18.304s18.304-7.321 18.304-18.304v-32.946c0-51.25 43.929-95.179 95.179-95.179h615.001c51.25 0 95.179 43.929 95.179 95.179v32.946c0 10.982 7.321 18.304 18.304 18.304s18.304-7.321 18.304-18.304v-32.946c0-73.214-58.571-131.786-131.786-131.786zM896.876 375c-3.661 0-10.982 0-14.643 3.661-7.321 7.321-7.321 18.304 0 25.625l58.571 58.571-58.571 58.571c-7.321 7.321-7.321 18.304 0 25.625s18.304 7.321 25.625 0l73.214-73.214c7.321-7.321 7.321-18.304 0-25.625l-73.214-73.214c0 0-7.321 0-10.982 0zM128.125 375c-3.661 0-10.982 0-14.643 3.661l-73.214 73.214c-7.321 7.321-7.321 18.304 0 25.625l73.214 73.214c7.321 7.321 18.304 7.321 25.625 0s7.321-18.304 0-25.625l-58.571-58.571 58.571-58.571c7.321-7.321 7.321-18.304 0-25.625 0-7.321-7.321-7.321-10.982-7.321zM322.144 305.446l-29.286 29.286 91.518 91.518c7.321 7.321 18.304 7.321 25.625 0l32.946-32.946 124.465 102.5c7.321 7.321 18.304 3.661 25.625-3.661l135.446-161.071-29.286-21.964-124.465 146.429-124.465-102.5c-7.321-7.321-18.304-3.661-25.625 0l-29.286 29.286-73.214-76.875zM384.375 499.464c-40.268 0-73.214 32.946-73.214 73.214s32.946 73.214 73.214 73.214 73.214-32.946 73.214-73.214-32.946-73.214-73.214-73.214zM384.375 609.286c-21.964 0-36.607-14.643-36.607-36.607s14.643-36.607 36.607-36.607 36.607 14.643 36.607 36.607-14.643 36.607-36.607 36.607z" />
<glyph unicode="&#xe61a;" glyph-name="TheGem-Elementor-Widget-Icon-26" d="M237.946 155.357h-146.429c-10.982 0-18.304 7.321-18.304 18.304s7.321 18.304 18.304 18.304h146.429c10.982 0 18.304 10.982 18.304 18.304v183.036c0 10.982-7.321 18.304-18.304 18.304h-183.036c-10.982 0-18.304-10.982-18.304-18.304v-146.429c0-10.982-7.321-18.304-18.304-18.304s-18.304 7.321-18.304 18.304v146.429c0 29.286 25.625 54.911 54.911 54.911h183.036c32.946 0 54.911-21.964 54.911-54.911v-183.036c0-29.286-25.625-54.911-54.911-54.911zM128.125 228.571h-40.268c-10.982 0-18.304 7.321-18.304 18.304s7.321 18.304 18.304 18.304h40.268c10.982 0 18.304-7.321 18.304-18.304s-7.321-18.304-18.304-18.304zM604.019 155.357h-146.429c-10.982 0-18.304 7.321-18.304 18.304s7.321 18.304 18.304 18.304h146.429c10.982 0 18.304 10.982 18.304 18.304v183.036c0 10.982-7.321 18.304-18.304 18.304h-183.036c-10.982 0-18.304-10.982-18.304-18.304v-146.429c0-10.982-7.321-18.304-18.304-18.304s-18.304 7.321-18.304 18.304v146.429c0 29.286 25.625 54.911 54.911 54.911h183.036c32.946 0 54.911-21.964 54.911-54.911v-183.036c0-29.286-25.625-54.911-54.911-54.911zM494.197 228.571h-40.268c-10.982 0-18.304 7.321-18.304 18.304s7.321 18.304 18.304 18.304h40.268c10.982 0 18.304-7.321 18.304-18.304s-7.321-18.304-18.304-18.304zM970.090 155.357h-146.429c-10.982 0-18.304 7.321-18.304 18.304s7.321 18.304 18.304 18.304h146.429c10.982 0 18.304 10.982 18.304 18.304v183.036c0 10.982-7.321 18.304-18.304 18.304h-183.036c-10.982 0-18.304-10.982-18.304-18.304v-146.429c0-10.982-7.321-18.304-18.304-18.304s-18.304 7.321-18.304 18.304v146.429c0 29.286 25.625 54.911 54.911 54.911h183.036c32.946 0 54.911-21.964 54.911-54.911v-183.036c0-29.286-25.625-54.911-54.911-54.911zM860.269 228.571h-40.268c-10.982 0-18.304 7.321-18.304 18.304s7.321 18.304 18.304 18.304h40.268c10.982 0 18.304-7.321 18.304-18.304s-7.321-18.304-18.304-18.304zM237.946 521.429h-146.429c-10.982 0-18.304 7.321-18.304 18.304s7.321 18.304 18.304 18.304h146.429c10.982 0 18.304 10.982 18.304 18.304v183.036c0 10.982-7.321 18.304-18.304 18.304h-183.036c-10.982 0-18.304-10.982-18.304-18.304v-146.429c0-10.982-7.321-18.304-18.304-18.304s-18.304 7.321-18.304 18.304v146.429c0 29.286 25.625 54.911 54.911 54.911h183.036c32.946 0 54.911-21.964 54.911-54.911v-183.036c0-29.286-25.625-54.911-54.911-54.911zM128.125 594.643h-40.268c-10.982 0-18.304 7.321-18.304 18.304s7.321 18.304 18.304 18.304h40.268c10.982 0 18.304-7.321 18.304-18.304s-7.321-18.304-18.304-18.304zM604.019 521.429h-146.429c-10.982 0-18.304 7.321-18.304 18.304s7.321 18.304 18.304 18.304h146.429c10.982 0 18.304 10.982 18.304 18.304v183.036c0 10.982-7.321 18.304-18.304 18.304h-183.036c-10.982 0-18.304-10.982-18.304-18.304v-146.429c0-10.982-7.321-18.304-18.304-18.304s-18.304 7.321-18.304 18.304v146.429c0 29.286 25.625 54.911 54.911 54.911h183.036c32.946 0 54.911-21.964 54.911-54.911v-183.036c0-29.286-25.625-54.911-54.911-54.911zM494.197 594.643h-40.268c-10.982 0-18.304 7.321-18.304 18.304s7.321 18.304 18.304 18.304h40.268c10.982 0 18.304-7.321 18.304-18.304s-7.321-18.304-18.304-18.304zM970.090 521.429h-146.429c-10.982 0-18.304 7.321-18.304 18.304s7.321 18.304 18.304 18.304h146.429c10.982 0 18.304 10.982 18.304 18.304v183.036c0 10.982-7.321 18.304-18.304 18.304h-183.036c-10.982 0-18.304-10.982-18.304-18.304v-146.429c0-10.982-7.321-18.304-18.304-18.304s-18.304 7.321-18.304 18.304v146.429c0 29.286 25.625 54.911 54.911 54.911h183.036c32.946 0 54.911-21.964 54.911-54.911v-183.036c0-29.286-25.625-54.911-54.911-54.911zM860.269 594.643h-40.268c-10.982 0-18.304 7.321-18.304 18.304s7.321 18.304 18.304 18.304h40.268c10.982 0 18.304-7.321 18.304-18.304s-7.321-18.304-18.304-18.304zM420.982 8.928h-36.607c-10.982 0-18.304 7.321-18.304 18.304s7.321 18.304 18.304 18.304h36.607c10.982 0 18.304-7.321 18.304-18.304s-7.321-18.304-18.304-18.304zM530.804 8.928h-36.607c-10.982 0-18.304 7.321-18.304 18.304s7.321 18.304 18.304 18.304h36.607c10.982 0 18.304-7.321 18.304-18.304s-7.321-18.304-18.304-18.304zM640.626 8.928h-36.607c-10.982 0-18.304 7.321-18.304 18.304s7.321 18.304 18.304 18.304h36.607c10.982 0 18.304-7.321 18.304-18.304s-7.321-18.304-18.304-18.304z" />
<glyph unicode="&#xe61b;" glyph-name="TheGem-Elementor-Widget-Icon-27" d="M237.946 631.25h-183.036c-32.946 0-54.911 21.964-54.911 54.911v109.821c0 32.946 21.964 54.911 54.911 54.911h183.036c32.946 0 54.911-21.964 54.911-54.911v-113.482c0-29.286-21.964-51.25-54.911-51.25zM54.911 814.286c-10.982 0-18.304-7.321-18.304-18.304v-109.821c0-10.982 7.321-18.304 18.304-18.304h183.036c10.982 0 18.304 7.321 18.304 14.643v113.482c0 10.982-7.321 18.304-18.304 18.304h-183.036zM604.019 631.25h-183.036c-32.946 0-54.911 21.964-54.911 54.911v109.821c0 32.946 21.964 54.911 54.911 54.911h183.036c32.946 0 54.911-21.964 54.911-54.911v-113.482c0-29.286-21.964-51.25-54.911-51.25zM420.982 814.286c-10.982 0-18.304-7.321-18.304-18.304v-109.821c0-10.982 7.321-18.304 18.304-18.304h183.036c10.982 0 18.304 7.321 18.304 14.643v113.482c0 10.982-7.321 18.304-18.304 18.304h-183.036zM970.090 631.25h-183.036c-32.946 0-54.911 21.964-54.911 54.911v109.821c0 32.946 21.964 54.911 54.911 54.911h183.036c32.946 0 54.911-21.964 54.911-54.911v-113.482c0-29.286-21.964-51.25-54.911-51.25zM787.055 814.286c-10.982 0-18.304-7.321-18.304-18.304v-109.821c0-10.982 7.321-18.304 18.304-18.304h183.036c10.982 0 18.304 7.321 18.304 14.643v113.482c0 10.982-7.321 18.304-18.304 18.304h-183.036zM237.946 155.357h-183.036c-32.946 0-54.911 21.964-54.911 54.911v113.482c0 32.946 21.964 54.911 54.911 54.911h183.036c32.946 0 54.911-21.964 54.911-54.911v-113.482c0-32.946-21.964-54.911-54.911-54.911zM54.911 342.054c-10.982 0-18.304-7.321-18.304-18.304v-113.482c0-10.982 7.321-18.304 18.304-18.304h183.036c10.982 0 18.304 7.321 18.304 18.304v113.482c0 10.982-7.321 18.304-18.304 18.304h-183.036zM604.019 155.357h-183.036c-32.946 0-54.911 21.964-54.911 54.911v113.482c0 32.946 21.964 54.911 54.911 54.911h183.036c32.946 0 54.911-21.964 54.911-54.911v-113.482c0-32.946-21.964-54.911-54.911-54.911zM420.982 342.054c-10.982 0-18.304-7.321-18.304-18.304v-113.482c0-10.982 7.321-18.304 18.304-18.304h183.036c10.982 0 18.304 7.321 18.304 18.304v113.482c0 10.982-7.321 18.304-18.304 18.304h-183.036zM970.090 155.357h-183.036c-32.946 0-54.911 21.964-54.911 54.911v113.482c0 32.946 21.964 54.911 54.911 54.911h183.036c32.946 0 54.911-21.964 54.911-54.911v-113.482c0-32.946-21.964-54.911-54.911-54.911zM787.055 342.054c-10.982 0-18.304-7.321-18.304-18.304v-113.482c0-10.982 7.321-18.304 18.304-18.304h183.036c10.982 0 18.304 7.321 18.304 18.304v113.482c0 10.982-7.321 18.304-18.304 18.304h-183.036zM219.643 521.429h-146.429c-10.982 0-18.304 7.321-18.304 18.304s7.321 18.304 18.304 18.304h146.429c10.982 0 18.304-7.321 18.304-18.304s-7.321-18.304-18.304-18.304zM585.715 521.429h-146.429c-10.982 0-18.304 7.321-18.304 18.304s7.321 18.304 18.304 18.304h146.429c10.982 0 18.304-7.321 18.304-18.304s-7.321-18.304-18.304-18.304zM951.786 521.429h-146.429c-10.982 0-18.304 7.321-18.304 18.304s7.321 18.304 18.304 18.304h146.429c10.982 0 18.304-7.321 18.304-18.304s-7.321-18.304-18.304-18.304zM219.643 45.535h-146.429c-10.982 0-18.304 7.321-18.304 18.304s7.321 18.304 18.304 18.304h146.429c10.982 0 18.304-7.321 18.304-18.304s-7.321-18.304-18.304-18.304zM585.715 45.535h-146.429c-10.982 0-18.304 7.321-18.304 18.304s7.321 18.304 18.304 18.304h146.429c10.982 0 18.304-7.321 18.304-18.304s-7.321-18.304-18.304-18.304zM951.786 45.535h-146.429c-10.982 0-18.304 7.321-18.304 18.304s7.321 18.304 18.304 18.304h146.429c10.982 0 18.304-7.321 18.304-18.304s-7.321-18.304-18.304-18.304z" />
<glyph unicode="&#xe61c;" glyph-name="TheGem-Elementor-Widget-Icon-28" d="M757.769 631.25h-344.107c-47.589 0-84.196 36.607-84.196 84.196v87.857c0 47.589 36.607 84.196 84.196 84.196h344.107c47.589 0 84.196-36.607 84.196-84.196v-87.857c0-47.589-36.607-84.196-84.196-84.196zM413.661 850.893c-25.625 0-47.589-21.964-47.589-47.589v-87.857c0-25.625 21.964-47.589 47.589-47.589h344.107c25.625 0 47.589 21.964 47.589 47.589v87.857c0 25.625-21.964 47.589-47.589 47.589h-344.107zM281.875 338.393h-281.875v36.607h281.875c25.625 0 47.589 21.964 47.589 47.589v87.857c0 25.625-21.964 47.589-47.589 47.589h-281.875v36.607h281.875c47.589 0 84.196-36.607 84.196-84.196v-87.857c0-47.589-36.607-84.196-84.196-84.196zM611.34 338.393h-124.465c-47.589 0-84.196 36.607-84.196 84.196v87.857c0 47.589 36.607 84.196 84.196 84.196h124.465c47.589 0 84.196-36.607 84.196-84.196v-87.857c0-47.589-36.607-84.196-84.196-84.196zM486.875 558.035c-25.625 0-47.589-21.964-47.589-47.589v-87.857c0-25.625 21.964-47.589 47.589-47.589h124.465c25.625 0 47.589 21.964 47.589 47.589v87.857c0 25.625-21.964 47.589-47.589 47.589h-124.465zM1025.001 631.25h-62.232c-47.589 0-84.196 36.607-84.196 84.196v87.857c0 47.589 36.607 84.196 84.196 84.196h62.232v-36.607h-62.232c-25.625 0-47.589-21.964-47.589-47.589v-87.857c0-25.625 21.964-47.589 47.589-47.589h62.232v-36.607zM1025.001 338.393h-208.661c-47.589 0-84.196 36.607-84.196 84.196v87.857c0 47.589 36.607 84.196 84.196 84.196h208.661v-36.607h-208.661c-25.625 0-47.589-21.964-47.589-47.589v-87.857c0-25.625 21.964-47.589 47.589-47.589h208.661v-36.607zM208.661 631.25h-208.661v36.607h208.661c25.625 0 47.589 21.964 47.589 47.589v87.857c0 25.625-21.964 47.589-47.589 47.589h-208.661v36.607h208.661c47.589 0 84.196-36.607 84.196-84.196v-87.857c0-47.589-36.607-84.196-84.196-84.196zM611.34 45.535h-344.107c-47.589 0-84.196 36.607-84.196 84.196v87.857c0 47.589 36.607 84.196 84.196 84.196h344.107c47.589 0 84.196-36.607 84.196-84.196v-87.857c0-47.589-36.607-84.196-84.196-84.196zM267.232 265.178c-25.625 0-47.589-21.964-47.589-47.589v-87.857c0-25.625 21.964-47.589 47.589-47.589h344.107c25.625 0 47.589 21.964 47.589 47.589v87.857c0 25.625-21.964 47.589-47.589 47.589h-344.107zM62.232 45.535h-62.232v36.607h62.232c25.625 0 47.589 21.964 47.589 47.589v87.857c0 25.625-21.964 47.589-47.589 47.589h-62.232v36.607h62.232c47.589 0 84.196-36.607 84.196-84.196v-87.857c0-47.589-36.607-84.196-84.196-84.196zM1025.001 45.535h-208.661c-47.589 0-84.196 36.607-84.196 84.196v87.857c0 47.589 36.607 84.196 84.196 84.196h208.661v-36.607h-208.661c-25.625 0-47.589-21.964-47.589-47.589v-87.857c0-25.625 21.964-47.589 47.589-47.589h208.661v-36.607z" />
<glyph unicode="&#xe61d;" glyph-name="TheGem-Elementor-Widget-Icon-29" d="M896.876 155.357h-805.357c-51.25 0-91.518 40.268-91.518 91.518v439.286c0 10.982 7.321 18.304 18.304 18.304s18.304-7.321 18.304-18.304v-439.286c0-29.286 25.625-54.911 54.911-54.911h805.357c10.982 0 18.304-7.321 18.304-18.304s-7.321-18.304-18.304-18.304zM970.090 228.571c-10.982 0-18.304 7.321-18.304 18.304v439.286c0 29.286-25.625 54.911-54.911 54.911h-805.357c-10.982 0-18.304 7.321-18.304 18.304s7.321 18.304 18.304 18.304h805.357c51.25 0 91.518-40.268 91.518-91.518v-439.286c0-10.982-7.321-18.304-18.304-18.304zM475.894 759.375h36.607v-604.019h-36.607v604.019zM256.25 356.696h36.607v-164.732h-36.607v164.732zM732.144 759.375h36.607v-183.036h-36.607v183.036zM18.304 375h475.894v-36.607h-475.894v36.607zM494.197 594.643h475.894v-36.607h-475.894v36.607zM549.107 265.178h146.429v-36.607h-146.429v36.607zM73.214 448.214h146.429v-36.607h-146.429v36.607z" />
<glyph unicode="&#xe61e;" glyph-name="TheGem-Elementor-Widget-Icon-30" d="M574.732 484.821h-490.536c-47.589 0-84.196 36.607-84.196 84.196v197.679c0 47.589 36.607 84.196 84.196 84.196h490.536c47.589 0 84.196-36.607 84.196-84.196v-197.679c0-47.589-36.607-84.196-84.196-84.196zM84.196 814.286c-25.625 0-47.589-21.964-47.589-47.589v-197.679c0-25.625 21.964-47.589 47.589-47.589h490.536c25.625 0 47.589 21.964 47.589 47.589v197.679c0 25.625-21.964 47.589-47.589 47.589h-490.536zM904.197 484.821h-208.661v36.607h208.661c25.625 0 47.589 21.964 47.589 47.589v197.679c0 25.625-21.964 47.589-47.589 47.589h-208.661v36.607h208.661c47.589 0 84.196-36.607 84.196-84.196v-197.679c0-47.589-36.607-84.196-84.196-84.196zM732.144 741.071h146.429v-36.607h-146.429v36.607zM732.144 667.858h146.429v-36.607h-146.429v36.607zM904.197 45.535h-490.536c-47.589 0-84.196 36.607-84.196 84.196v197.679c0 47.589 36.607 84.196 84.196 84.196h490.536c47.589 0 84.196-36.607 84.196-84.196v-197.679c0-47.589-36.607-84.196-84.196-84.196zM413.661 375c-25.625 0-47.589-21.964-47.589-47.589v-197.679c0-25.625 21.964-47.589 47.589-47.589h490.536c25.625 0 47.589 21.964 47.589 47.589v197.679c0 25.625-21.964 47.589-47.589 47.589h-490.536zM292.857 45.535h-208.661c-47.589 0-84.196 36.607-84.196 84.196v197.679c0 47.589 36.607 84.196 84.196 84.196h208.661v-36.607h-208.661c-25.625 0-47.589-21.964-47.589-47.589v-197.679c0-25.625 21.964-47.589 47.589-47.589h208.661v-36.607zM109.821 301.785h146.429v-36.607h-146.429v36.607zM109.821 228.571h146.429v-36.607h-146.429v36.607z" />
<glyph unicode="&#xe61f;" glyph-name="TheGem-Elementor-Widget-Icon-31" d="M940.805 558.035h-856.608c-47.589 0-84.196 36.607-84.196 84.196v197.679c0 47.589 36.607 84.196 84.196 84.196 10.982 0 18.304-7.321 18.304-18.304s-7.321-18.304-18.304-18.304c-25.625 0-47.589-21.964-47.589-47.589v-197.679c0-25.625 21.964-47.589 47.589-47.589h856.608c25.625 0 47.589 21.964 47.589 47.589v197.679c0 25.625-21.964 47.589-47.589 47.589h-501.519c-10.982 0-18.304 7.321-18.304 18.304s7.321 18.304 18.304 18.304h501.519c47.589 0 84.196-36.607 84.196-84.196v-197.679c0-47.589-36.607-84.196-84.196-84.196zM347.769 722.768c-3.661 0-7.321 0-10.982 3.661l-80.536 47.589-80.536-47.589c-7.321-3.661-10.982-3.661-18.304 0s-10.982 7.321-10.982 14.643v201.34c0 10.982 7.321 18.304 18.304 18.304h183.036c10.982 0 18.304-7.321 18.304-18.304v-201.34c0-7.321-3.661-10.982-10.982-14.643 0-3.661-3.661-3.661-7.321-3.661zM256.25 814.286c3.661 0 7.321 0 10.982-3.661l62.232-36.607v150.090h-146.429v-150.090l62.232 36.607c3.661 3.661 7.321 3.661 10.982 3.661zM940.805 8.928h-856.608c-47.589 0-84.196 36.607-84.196 84.196v197.679c0 47.589 36.607 84.196 84.196 84.196 10.982 0 18.304-7.321 18.304-18.304s-7.321-18.304-18.304-18.304c-25.625 0-47.589-21.964-47.589-47.589v-197.679c0-25.625 21.964-47.589 47.589-47.589h856.608c25.625 0 47.589 21.964 47.589 47.589v197.679c0 25.625-21.964 47.589-47.589 47.589h-501.519c-10.982 0-18.304 7.321-18.304 18.304s7.321 18.304 18.304 18.304h501.519c47.589 0 84.196-36.607 84.196-84.196v-197.679c0-47.589-36.607-84.196-84.196-84.196zM347.769 173.66c-3.661 0-7.321 0-10.982 3.661l-80.536 47.589-80.536-47.589c-7.321-3.661-10.982-3.661-18.304 0s-10.982 7.321-10.982 14.643v201.34c0 10.982 7.321 18.304 18.304 18.304h183.036c10.982 0 18.304-7.321 18.304-18.304v-201.34c0-7.321-3.661-10.982-10.982-14.643 0-3.661-3.661-3.661-7.321-3.661zM256.25 265.178c3.661 0 7.321 0 10.982-3.661l62.232-36.607v150.090h-146.429v-150.090l62.232 36.607c3.661 3.661 7.321 3.661 10.982 3.661zM970.090 484.821h-915.18c-10.982 0-18.304 7.321-18.304 18.304s7.321 18.304 18.304 18.304h915.18c10.982 0 18.304-7.321 18.304-18.304s-7.321-18.304-18.304-18.304zM970.090-64.286h-915.18c-10.982 0-18.304 7.321-18.304 18.304s7.321 18.304 18.304 18.304h915.18c10.982 0 18.304-7.321 18.304-18.304s-7.321-18.304-18.304-18.304z" />
<glyph unicode="&#xe620;" glyph-name="TheGem-Elementor-Widget-Icon-32" d="M446.607 301.785h-208.661c-131.786 0-237.946 106.161-237.946 237.946s106.161 237.946 234.286 237.946h549.107c131.786 0 241.607-109.821 241.607-237.946 0-87.857-51.25-172.054-131.786-212.321-7.321-3.661-18.304 0-25.625 7.321-3.661 7.321 0 18.304 7.321 25.625 69.554 36.607 109.821 106.161 109.821 183.036 0 109.821-95.179 201.34-205 201.34h-549.107c-106.161-3.661-194.018-95.179-194.018-205s91.518-201.34 201.34-201.34h208.661c10.982 0 18.304-7.321 18.304-18.304s-7.321-18.304-18.304-18.304zM549.107 558.035h256.25v-36.607h-256.25v36.607zM259.911 426.25c-3.661 0-7.321 0-10.982 3.661-7.321 3.661-7.321 10.982-7.321 18.304l14.643 62.232-51.25 47.589c-3.661 3.661-7.321 10.982-3.661 18.304s7.321 10.982 14.643 10.982l62.232 10.982 29.286 58.571c7.321 10.982 25.625 10.982 32.946 0l29.286-58.571 65.893-10.982c7.321 0 10.982-7.321 14.643-10.982 3.661-7.321 0-14.643-3.661-18.304l-47.589-47.589 10.982-65.893c0-7.321-3.661-14.643-7.321-18.304-7.321-3.661-14.643-3.661-18.304 0l-58.571 32.946-58.571-32.946c0 0-3.661 0-7.321 0zM325.804 499.464c3.661 0 7.321 0 7.321-3.661l32.946-18.304-3.661 36.607c0 7.321 0 10.982 3.661 14.643l29.286 29.286-40.268 7.321c-7.321 0-10.982 3.661-14.643 10.982l-14.643 32.946-18.304-32.946c-3.661-3.661-7.321-7.321-14.643-10.982l-36.607-7.321 29.286-29.286c7.321-3.661 7.321-7.321 7.321-14.643l-7.321-32.946 32.946 18.304c0 0 3.661 0 7.321 0zM724.822-20.357c-7.321 0-14.643 3.661-18.304 10.982l-153.75 377.054c-3.661 7.321 0 14.643 3.661 21.964s14.643 7.321 21.964 3.661l340.446-186.696c7.321-3.661 10.982-10.982 10.982-18.304s-7.321-14.643-14.643-14.643l-139.107-36.607-32.946-139.107c-3.661-10.982-7.321-18.304-18.304-18.304 0 0 0 0 0 0zM607.679 334.732l113.482-278.215 21.964 95.179c0 7.321 7.321 10.982 14.643 14.643l106.161 29.286-256.25 139.107zM929.822-35.001c-3.661 0-10.982 0-10.982 3.661l-168.393 164.732c-7.321 7.321-7.321 18.304 0 25.625s18.304 7.321 25.625 0l168.393-164.732c7.321-7.321 7.321-18.304 0-25.625-3.661-3.661-10.982-3.661-14.643-3.661z" />
<glyph unicode="&#xe621;" glyph-name="TheGem-Elementor-Widget-Icon-33" d="M750.447 887.5h-475.894c-51.25 0-91.518-40.268-91.518-91.518v-695.536c0-51.25 40.268-91.518 91.518-91.518h475.894c51.25 0 91.518 40.268 91.518 91.518v695.536c0 51.25-40.268 91.518-91.518 91.518zM805.357 100.446c0-29.286-25.625-54.911-54.911-54.911h-475.894c-29.286 0-54.911 25.625-54.911 54.911v695.536c0 29.286 25.625 54.911 54.911 54.911h475.894c29.286 0 54.911-25.625 54.911-54.911v-695.536zM549.107 228.571h-237.946c-10.982 0-18.304-7.321-18.304-18.304s7.321-18.304 18.304-18.304h237.946c10.982 0 18.304 7.321 18.304 18.304s-7.321 18.304-18.304 18.304zM494.197 155.357h-183.036c-10.982 0-18.304-7.321-18.304-18.304s7.321-18.304 18.304-18.304h183.036c10.982 0 18.304 7.321 18.304 18.304s-7.321 18.304-18.304 18.304zM1021.34 481.16l-73.214 73.214c-7.321 7.321-18.304 7.321-25.625 0s-7.321-18.304 0-25.625l58.571-58.571-58.571-58.571c-7.321-7.321-7.321-18.304 0-25.625 3.661-3.661 7.321-3.661 14.643-3.661s10.982 0 14.643 3.661l73.214 73.214c0 0 0 14.643-3.661 21.964zM106.161 554.375c-7.321 7.321-18.304 7.321-25.625 0l-73.214-73.214c-7.321-7.321-7.321-18.304 0-25.625l73.214-73.214c0-7.321 7.321-7.321 10.982-7.321s10.982 0 14.643 3.661c7.321 7.321 7.321 18.304 0 25.625l-58.571 58.571 58.571 58.571c3.661 10.982 3.661 25.625 0 32.946zM384.375 462.858c-25.625 0-47.589 21.964-47.589 47.589 0 10.982-7.321 18.304-18.304 18.304s-18.304-7.321-18.304-14.643c0-40.268 29.286-76.875 65.893-84.196v-36.607c0-10.982 7.321-18.304 18.304-18.304s18.304 7.321 18.304 18.304v36.607c40.268 7.321 65.893 43.929 65.893 84.196 0 47.589-40.268 84.196-84.196 84.196-25.625 0-47.589 21.964-47.589 47.589s21.964 47.589 47.589 47.589c25.625 0 47.589-21.964 47.589-47.589 0-10.982 7.321-18.304 18.304-18.304s18.304 7.321 18.304 18.304c0 40.268-29.286 76.875-65.893 84.196v47.589c0 10.982-7.321 18.304-18.304 18.304s-18.304-7.321-18.304-18.304v-43.929c-40.268-10.982-65.893-43.929-65.893-84.196 0-47.589 40.268-84.196 84.196-84.196 25.625 0 47.589-21.964 47.589-47.589s-21.964-54.911-47.589-54.911z" />
<glyph unicode="&#xe622;" glyph-name="TheGem-Elementor-Widget-Icon-34" d="M384.375 960.715h-292.857c-51.25 0-91.518-40.268-91.518-91.518v-292.857c0-51.25 40.268-91.518 91.518-91.518h292.857c51.25 0 91.518 40.268 91.518 91.518v292.857c0 51.25-40.268 91.518-91.518 91.518zM439.286 576.339c0-29.286-25.625-54.911-54.911-54.911h-292.857c-29.286 0-54.911 25.625-54.911 54.911v292.857c0 29.286 25.625 54.911 54.911 54.911h292.857c29.286 0 54.911-25.625 54.911-54.911v-292.857zM201.34 631.25h-91.518c-10.982 0-18.304-7.321-18.304-18.304s7.321-18.304 18.304-18.304h91.518c10.982 0 18.304 7.321 18.304 18.304s-7.321 18.304-18.304 18.304zM256.25 704.464h-146.429c-10.982 0-18.304-7.321-18.304-18.304s7.321-18.304 18.304-18.304h146.429c10.982 0 18.304 7.321 18.304 18.304s-7.321 18.304-18.304 18.304zM933.483 960.715h-292.857c-51.25 0-91.518-40.268-91.518-91.518v-292.857c0-51.25 40.268-91.518 91.518-91.518h292.857c51.25 0 91.518 40.268 91.518 91.518v292.857c0 51.25-40.268 91.518-91.518 91.518zM988.394 576.339c0-29.286-25.625-54.911-54.911-54.911h-292.857c-29.286 0-54.911 25.625-54.911 54.911v292.857c0 29.286 25.625 54.911 54.911 54.911h292.857c29.286 0 54.911-25.625 54.911-54.911v-292.857zM750.447 631.25h-91.518c-10.982 0-18.304-7.321-18.304-18.304s7.321-18.304 18.304-18.304h91.518c10.982 0 18.304 7.321 18.304 18.304s-7.321 18.304-18.304 18.304zM805.357 704.464h-146.429c-10.982 0-18.304-7.321-18.304-18.304s7.321-18.304 18.304-18.304h146.429c10.982 0 18.304 7.321 18.304 18.304s-7.321 18.304-18.304 18.304zM384.375 411.607h-292.857c-51.25 0-91.518-40.268-91.518-91.518v-292.857c0-51.25 40.268-91.518 91.518-91.518h292.857c51.25 0 91.518 40.268 91.518 91.518v292.857c0 51.25-40.268 91.518-91.518 91.518zM439.286 27.232c0-29.286-25.625-54.911-54.911-54.911h-292.857c-29.286 0-54.911 25.625-54.911 54.911v292.857c0 29.286 25.625 54.911 54.911 54.911h292.857c29.286 0 54.911-25.625 54.911-54.911v-292.857zM201.34 82.143h-91.518c-10.982 0-18.304-7.321-18.304-18.304s7.321-18.304 18.304-18.304h91.518c10.982 0 18.304 7.321 18.304 18.304s-7.321 18.304-18.304 18.304zM256.25 155.357h-146.429c-10.982 0-18.304-7.321-18.304-18.304s7.321-18.304 18.304-18.304h146.429c10.982 0 18.304 7.321 18.304 18.304s-7.321 18.304-18.304 18.304zM933.483 411.607h-292.857c-51.25 0-91.518-40.268-91.518-91.518v-292.857c0-51.25 40.268-91.518 91.518-91.518h292.857c51.25 0 91.518 40.268 91.518 91.518v292.857c0 51.25-40.268 91.518-91.518 91.518zM988.394 27.232c0-29.286-25.625-54.911-54.911-54.911h-292.857c-29.286 0-54.911 25.625-54.911 54.911v292.857c0 29.286 25.625 54.911 54.911 54.911h292.857c29.286 0 54.911-25.625 54.911-54.911v-292.857zM750.447 82.143h-91.518c-10.982 0-18.304-7.321-18.304-18.304s7.321-18.304 18.304-18.304h91.518c10.982 0 18.304 7.321 18.304 18.304s-7.321 18.304-18.304 18.304zM805.357 155.357h-146.429c-10.982 0-18.304-7.321-18.304-18.304s7.321-18.304 18.304-18.304h146.429c10.982 0 18.304 7.321 18.304 18.304s-7.321 18.304-18.304 18.304z" />
<glyph unicode="&#xe623;" glyph-name="TheGem-Elementor-Widget-Icon-52" d="M749.714 886.857h-475.429c-51.2 0-91.429-40.229-91.429-91.429v-694.857c0-51.2 40.229-91.429 91.429-91.429h475.429c51.2 0 91.429 40.229 91.429 91.429v694.857c0 51.2-40.229 91.429-91.429 91.429zM804.571 100.571c0-29.257-25.6-54.857-54.857-54.857h-475.429c-29.257 0-54.857 25.6-54.857 54.857v694.857c0 29.257 25.6 54.857 54.857 54.857h475.429c29.257 0 54.857-25.6 54.857-54.857v-694.857zM548.571 228.571h-237.714c-10.971 0-18.286-7.314-18.286-18.286s7.314-18.286 18.286-18.286h237.714c10.971 0 18.286 7.314 18.286 18.286s-7.314 18.286-18.286 18.286zM493.714 155.429h-182.857c-10.971 0-18.286-7.314-18.286-18.286s7.314-18.286 18.286-18.286h182.857c10.971 0 18.286 7.314 18.286 18.286s-7.314 18.286-18.286 18.286zM1020.343 480.914l-73.143 73.143c-7.314 7.314-18.286 7.314-25.6 0s-7.314-18.286 0-25.6l58.514-58.514-58.514-58.514c-7.314-7.314-7.314-18.286 0-25.6 3.657-3.657 7.314-3.657 14.629-3.657s10.971 0 14.629 3.657l73.143 73.143c0 0 0 14.629-3.657 21.943zM106.057 554.057c-7.314 7.314-18.286 7.314-25.6 0l-73.143-73.143c-7.314-7.314-7.314-18.286 0-25.6l73.143-73.143c0-7.314 7.314-7.314 10.971-7.314s10.971 0 14.629 3.657c7.314 7.314 7.314 18.286 0 25.6l-58.514 58.514 58.514 58.514c3.657 10.971 3.657 25.6 0 32.914z" />
<glyph unicode="&#xe624;" glyph-name="TheGem-Elementor-Widget-Icon-51" d="M384 960h-292.571c-51.2 0-91.429-40.229-91.429-91.429v-292.571c0-51.2 40.229-91.429 91.429-91.429h292.571c51.2 0 91.429 40.229 91.429 91.429v292.571c0 51.2-40.229 91.429-91.429 91.429zM438.857 576c0-29.257-25.6-54.857-54.857-54.857h-292.571c-29.257 0-54.857 25.6-54.857 54.857v292.571c0 29.257 25.6 54.857 54.857 54.857h292.571c29.257 0 54.857-25.6 54.857-54.857v-292.571zM256 630.857h-146.286c-10.971 0-18.286-7.314-18.286-18.286s7.314-18.286 18.286-18.286h146.286c10.971 0 18.286 7.314 18.286 18.286s-7.314 18.286-18.286 18.286zM932.571 960h-292.571c-51.2 0-91.429-40.229-91.429-91.429v-292.571c0-51.2 40.229-91.429 91.429-91.429h292.571c51.2 0 91.429 40.229 91.429 91.429v292.571c0 51.2-40.229 91.429-91.429 91.429zM987.429 576c0-29.257-25.6-54.857-54.857-54.857h-292.571c-29.257 0-54.857 25.6-54.857 54.857v292.571c0 29.257 25.6 54.857 54.857 54.857h292.571c29.257 0 54.857-25.6 54.857-54.857v-292.571zM804.571 630.857h-146.286c-10.971 0-18.286-7.314-18.286-18.286s7.314-18.286 18.286-18.286h146.286c10.971 0 18.286 7.314 18.286 18.286s-7.314 18.286-18.286 18.286zM384 411.429h-292.571c-51.2 0-91.429-40.229-91.429-91.429v-292.571c0-51.2 40.229-91.429 91.429-91.429h292.571c51.2 0 91.429 40.229 91.429 91.429v292.571c0 51.2-40.229 91.429-91.429 91.429zM438.857 27.429c0-29.257-25.6-54.857-54.857-54.857h-292.571c-29.257 0-54.857 25.6-54.857 54.857v292.571c0 29.257 25.6 54.857 54.857 54.857h292.571c29.257 0 54.857-25.6 54.857-54.857v-292.571zM256 82.286h-146.286c-10.971 0-18.286-7.314-18.286-18.286s7.314-18.286 18.286-18.286h146.286c10.971 0 18.286 7.314 18.286 18.286s-7.314 18.286-18.286 18.286zM932.571 411.429h-292.571c-51.2 0-91.429-40.229-91.429-91.429v-292.571c0-51.2 40.229-91.429 91.429-91.429h292.571c51.2 0 91.429 40.229 91.429 91.429v292.571c0 51.2-40.229 91.429-91.429 91.429zM987.429 27.429c0-29.257-25.6-54.857-54.857-54.857h-292.571c-29.257 0-54.857 25.6-54.857 54.857v292.571c0 29.257 25.6 54.857 54.857 54.857h292.571c29.257 0 54.857-25.6 54.857-54.857v-292.571zM804.571 82.286h-146.286c-10.971 0-18.286-7.314-18.286-18.286s7.314-18.286 18.286-18.286h146.286c10.971 0 18.286 7.314 18.286 18.286s-7.314 18.286-18.286 18.286z" />
<glyph unicode="&#xe625;" glyph-name="TheGem-Elementor-Widget-Icon-53" d="M914.286 886.857h-804.571c-62.171 0-109.714-47.543-109.714-109.714v-54.857c0-10.971 7.314-18.286 18.286-18.286s18.286 7.314 18.286 18.286v54.857c0 40.229 32.914 73.143 73.143 73.143h804.571c40.229 0 73.143-32.914 73.143-73.143v-54.857c0-10.971 7.314-18.286 18.286-18.286s18.286 7.314 18.286 18.286v54.857c0 62.171-47.543 109.714-109.714 109.714zM1005.714 484.571c-10.971 0-18.286-7.314-18.286-18.286v-54.857c0-40.229-32.914-73.143-73.143-73.143h-804.571c-40.229 0-73.143 32.914-73.143 73.143v54.857c0 10.971-7.314 18.286-18.286 18.286s-18.286-7.314-18.286-18.286v-54.857c0-58.514 47.543-109.714 109.714-109.714h804.571c58.514 0 109.714 47.543 109.714 109.714v54.857c0 10.971-7.314 18.286-18.286 18.286zM932.571 192h-841.143c-10.971 0-18.286-7.314-18.286-18.286s7.314-18.286 18.286-18.286h841.143c10.971 0 18.286 7.314 18.286 18.286s-7.314 18.286-18.286 18.286zM292.571 539.429c0-10.971 7.314-18.286 18.286-18.286h402.286c10.971 0 18.286 7.314 18.286 18.286s-7.314 18.286-18.286 18.286h-402.286c-10.971 0-18.286-7.314-18.286-18.286zM347.429 484.571c-10.971 0-18.286-7.314-18.286-18.286s7.314-18.286 18.286-18.286h329.143c10.971 0 18.286 7.314 18.286 18.286s-7.314 18.286-18.286 18.286h-329.143zM91.429 82.286h768c10.971 0 18.286 7.314 18.286 18.286s-7.314 18.286-18.286 18.286h-768c-10.971 0-18.286-7.314-18.286-18.286s7.314-18.286 18.286-18.286zM932.571 45.714h-841.143c-10.971 0-18.286-7.314-18.286-18.286s7.314-18.286 18.286-18.286h841.143c10.971 0 18.286 7.314 18.286 18.286s-7.314 18.286-18.286 18.286zM585.143 667.429c0 40.229-32.914 73.143-73.143 73.143s-73.143-32.914-73.143-73.143 32.914-73.143 73.143-73.143 73.143 32.914 73.143 73.143zM475.429 667.429c0 21.943 14.629 36.571 36.571 36.571s36.571-14.629 36.571-36.571-14.629-36.571-36.571-36.571-36.571 14.629-36.571 36.571z" />
<glyph unicode="&#xe626;" glyph-name="TheGem-Elementor-Widget-Icon-65" d="M892.343 773.486c-47.543 47.543-109.714 73.143-182.857 76.8-40.229 0-80.457-7.314-117.029-25.6-29.257-14.629-58.514-32.914-80.457-54.857-21.943 21.943-51.2 40.229-80.457 54.857-36.571 18.286-76.8 25.6-117.029 25.6-73.143 0-135.314-25.6-182.857-76.8-47.543-47.543-73.143-109.714-76.8-182.857 0-84.114 36.571-168.229 106.057-252.343 65.829-76.8 160.914-168.229 274.286-270.629l62.171-58.514c7.314 0 10.971 0 14.629 0s7.314 0 10.971 3.657l62.171 58.514c113.371 98.743 204.8 190.171 274.286 270.629s106.057 164.571 106.057 252.343c3.657 69.486-21.943 131.657-73.143 179.2zM833.829 363.886c-65.829-76.8-157.257-168.229-270.629-266.971l-51.2-47.543-51.2 47.543c-113.371 98.743-204.8 190.171-270.629 266.971-65.829 73.143-98.743 149.943-98.743 226.743 0 65.829 21.943 117.029 65.829 157.257 40.229 43.886 91.429 65.829 157.257 65.829 36.571 0 69.486-7.314 102.4-21.943s58.514-36.571 84.114-62.171c7.314-7.314 21.943-7.314 25.6 0 21.943 25.6 51.2 47.543 80.457 62.171 32.914 14.629 65.829 21.943 102.4 21.943 65.829 0 117.029-21.943 157.257-65.829 43.886-43.886 62.171-95.086 65.829-157.257 0-76.8-32.914-153.6-98.743-226.743zM347.429 755.2c-10.971 0-21.943 3.657-36.571 3.657 0 0 0 0 0 0-43.886-3.657-84.114-18.286-117.029-51.2-29.257-29.257-47.543-69.486-47.543-117.029 0-36.571 10.971-73.143 32.914-109.714 3.657-7.314 10.971-10.971 14.629-10.971s7.314 0 7.314 3.657c7.314 3.657 10.971 14.629 7.314 25.6-14.629 29.257-25.6 62.171-25.6 91.429 0 36.571 14.629 69.486 36.571 91.429 25.6 25.6 54.857 36.571 91.429 36.571 10.971 0 18.286 0 25.6-3.657 10.971-3.657 18.286 3.657 21.943 14.629s0 21.943-10.971 25.6z" />
<glyph unicode="&#xe627;" glyph-name="TheGem-Elementor-Widget-Icon-64" d="M939.886 660.114c-3.657 3.657-10.971 7.314-14.629 7.314h-486.4c-10.971 0-18.286-7.314-18.286-18.286s7.314-18.286 18.286-18.286h457.143l-120.686-292.571h-376.686l-149.943 497.371c-3.657 10.971-7.314 14.629-18.286 14.629h-138.971c-10.971 0-18.286-7.314-18.286-18.286s7.314-18.286 18.286-18.286h128l146.286-497.371c3.657-7.314 10.971-14.629 18.286-14.629h402.286c7.314 0 14.629 3.657 18.286 10.971l138.971 329.143c0 7.314 0 10.971-3.657 18.286zM402.286 192c-40.229 0-73.143-32.914-73.143-73.143s32.914-73.143 73.143-73.143 73.143 32.914 73.143 73.143-32.914 73.143-73.143 73.143zM402.286 82.286c-21.943 0-36.571 14.629-36.571 36.571s14.629 36.571 36.571 36.571 36.571-14.629 36.571-36.571-14.629-36.571-36.571-36.571zM768 192c-40.229 0-73.143-32.914-73.143-73.143s32.914-73.143 73.143-73.143 73.143 32.914 73.143 73.143-32.914 73.143-73.143 73.143zM768 82.286c-21.943 0-36.571 14.629-36.571 36.571s14.629 36.571 36.571 36.571 36.571-14.629 36.571-36.571-14.629-36.571-36.571-36.571z" />
<glyph unicode="&#xe628;" glyph-name="TheGem-Elementor-Widget-Icon-63" d="M709.486 433.371c-7.314 3.657-18.286 3.657-25.6-7.314-3.657-7.314-3.657-18.286 7.314-25.6 95.086-54.857 149.943-153.6 149.943-270.629v-84.114h-658.286v87.771c0 117.029 54.857 215.771 149.943 270.629 7.314 3.657 10.971 14.629 7.314 25.6-3.657 7.314-14.629 10.971-25.6 7.314-106.057-62.171-168.229-171.886-168.229-303.543v-106.057c0-10.971 7.314-18.286 18.286-18.286h694.857c10.971 0 18.286 7.314 18.286 18.286v106.057c0 131.657-62.171 241.371-168.229 299.886zM512 448c120.686 0 219.429 98.743 219.429 219.429s-98.743 219.429-219.429 219.429-219.429-98.743-219.429-219.429 98.743-219.429 219.429-219.429zM512 850.286c102.4 0 182.857-80.457 182.857-182.857s-80.457-182.857-182.857-182.857-182.857 80.457-182.857 182.857 80.457 182.857 182.857 182.857z" />
<glyph unicode="&#xe629;" glyph-name="TheGem-Elementor-Widget-Icon-62" d="M640 374.857c-3.657 0-10.971 0-14.629 3.657-7.314 7.314-7.314 18.286 0 25.6l58.514 58.514-58.514 58.514c-7.314 7.314-7.314 18.286 0 25.6s18.286 7.314 25.6 0l73.143-73.143c7.314-7.314 7.314-18.286 0-25.6l-73.143-73.143c0 0-7.314 0-10.971 0zM347.429 374.857c-3.657 0-10.971 0-14.629 3.657l-73.143 73.143c-7.314 7.314-7.314 18.286 0 25.6l73.143 73.143c7.314 7.314 18.286 7.314 25.6 0s7.314-18.286 0-25.6l-58.514-58.514 58.514-58.514c7.314-7.314 7.314-18.286 0-25.6 0-7.314-7.314-7.314-10.971-7.314zM493.714-45.714c-10.971 0-18.286 7.314-18.286 18.286v950.857c0 10.971 7.314 18.286 18.286 18.286s18.286-7.314 18.286-18.286v-950.857c0-10.971-7.314-18.286-18.286-18.286z" />
<glyph unicode="&#xe62a;" glyph-name="TheGem-Elementor-Widget-Icon-68" d="M91.429 649.143c10.971 0 18.286 10.971 18.286 18.286 0 40.229 32.914 73.143 73.143 73.143h658.286c40.229 0 73.143-32.914 73.143-73.143 0-10.971 7.314-18.286 18.286-18.286s18.286 10.971 18.286 18.286c0 58.514-47.543 109.714-109.714 109.714h-658.286c-62.171 0-109.714-47.543-109.714-109.714 0-7.314 7.314-18.286 18.286-18.286zM493.714 411.429h-310.857c-40.229 0-73.143 32.914-73.143 73.143 0 10.971-7.314 18.286-18.286 18.286s-18.286-10.971-18.286-18.286c0-58.514 47.543-109.714 109.714-109.714h310.857c10.971 0 18.286 7.314 18.286 18.286s-7.314 18.286-18.286 18.286zM91.429 557.714h164.571c10.971 0 18.286 7.314 18.286 18.286s-7.314 18.286-18.286 18.286h-164.571c-10.971 0-18.286-7.314-18.286-18.286s7.314-18.286 18.286-18.286zM420.571 594.286c-10.971 0-18.286-7.314-18.286-18.286s7.314-18.286 18.286-18.286h164.571c10.971 0 18.286 7.314 18.286 18.286s-7.314 18.286-18.286 18.286h-164.571zM914.286 594.286h-164.571c-10.971 0-18.286-7.314-18.286-18.286s7.314-18.286 18.286-18.286h164.571c10.971 0 18.286 7.314 18.286 18.286s-7.314 18.286-18.286 18.286zM947.2 115.2l-146.286 146.286 120.686 29.257c7.314 0 10.971 7.314 14.629 14.629 0 7.314-3.657 14.629-10.971 18.286l-340.114 186.514c-7.314 3.657-14.629 3.657-21.943-3.657-7.314-3.657-7.314-14.629-3.657-21.943l149.943-376.686c3.657-7.314 10.971-10.971 18.286-10.971 0 0 0 0 0 0 7.314 0 14.629 7.314 18.286 14.629l29.257 120.686 146.286-146.286c3.657-3.657 7.314-3.657 14.629-3.657s10.971 0 14.629 3.657c0 7.314 0 21.943-3.657 29.257zM724.114 177.371l-109.714 277.943 252.343-142.629-106.057-25.6c0 0 0 0 0 0-3.657 0-3.657-3.657-7.314-3.657 0 0 0 0 0 0-3.657-3.657-3.657-3.657-3.657-7.314 0 0 0 0 0 0l-25.6-98.743z" />
<glyph unicode="&#xe62b;" glyph-name="TheGem-Elementor-Widget-Icon-67" d="M91.429 594.286c10.971 0 18.286 7.314 18.286 18.286v54.857c0 40.229 32.914 73.143 73.143 73.143h658.286c40.229 0 73.143-32.914 73.143-73.143v-54.857c0-10.971 7.314-18.286 18.286-18.286s18.286 7.314 18.286 18.286v54.857c0 58.514-47.543 109.714-109.714 109.714h-658.286c-62.171 0-109.714-47.543-109.714-109.714v-54.857c0-10.971 7.314-18.286 18.286-18.286zM603.429 45.714h-420.571c-40.229 0-73.143 32.914-73.143 73.143v54.857c0 10.971-7.314 18.286-18.286 18.286s-18.286-7.314-18.286-18.286v-54.857c0-58.514 47.543-109.714 109.714-109.714h420.571c10.971 0 18.286 7.314 18.286 18.286s-7.314 18.286-18.286 18.286zM91.429 886.857h164.571c10.971 0 18.286 7.314 18.286 18.286s-7.314 18.286-18.286 18.286h-164.571c-10.971 0-18.286-7.314-18.286-18.286s7.314-18.286 18.286-18.286zM420.571 886.857h164.571c10.971 0 18.286 7.314 18.286 18.286s-7.314 18.286-18.286 18.286h-164.571c-10.971 0-18.286-7.314-18.286-18.286s7.314-18.286 18.286-18.286zM749.714 886.857h164.571c10.971 0 18.286 7.314 18.286 18.286s-7.314 18.286-18.286 18.286h-164.571c-10.971 0-18.286-7.314-18.286-18.286s7.314-18.286 18.286-18.286zM237.714 594.286h438.857c10.971 0 18.286 7.314 18.286 18.286s-7.314 18.286-18.286 18.286h-438.857c-10.971 0-18.286-7.314-18.286-18.286s7.314-18.286 18.286-18.286zM804.571 502.857c0 10.971-7.314 18.286-18.286 18.286h-548.571c-10.971 0-18.286-7.314-18.286-18.286s7.314-18.286 18.286-18.286h548.571c10.971 0 18.286 7.314 18.286 18.286zM237.714 374.857h234.057c10.971 0 18.286 7.314 18.286 18.286s-7.314 18.286-18.286 18.286h-234.057c-10.971 0-18.286-7.314-18.286-18.286s7.314-18.286 18.286-18.286zM237.714 155.429h310.857c10.971 0 18.286 7.314 18.286 18.286s-7.314 18.286-18.286 18.286h-310.857c-10.971 0-18.286-7.314-18.286-18.286s7.314-18.286 18.286-18.286zM237.714 265.143h274.286c10.971 0 18.286 7.314 18.286 18.286s-7.314 18.286-18.286 18.286h-274.286c-10.971 0-18.286-7.314-18.286-18.286s7.314-18.286 18.286-18.286zM947.2 42.057l-146.286 146.286 120.686 29.257c7.314 0 10.971 7.314 14.629 14.629 0 7.314-3.657 14.629-10.971 18.286l-340.114 186.514c-7.314 3.657-14.629 3.657-21.943-3.657-7.314-3.657-7.314-14.629-3.657-21.943l149.943-376.686c3.657-7.314 10.971-10.971 18.286-10.971 0 0 0 0 0 0 7.314 0 14.629 7.314 18.286 14.629l29.257 120.686 146.286-146.286c3.657-3.657 7.314-3.657 14.629-3.657s10.971 0 14.629 3.657c0 7.314 0 21.943-3.657 29.257zM724.114 104.229l-109.714 277.943 252.343-142.629-106.057-25.6c0 0 0 0 0 0-3.657 0-3.657-3.657-7.314-3.657 0 0 0 0 0 0-3.657-3.657-3.657-3.657-3.657-7.314 0 0 0 0 0 0l-25.6-98.743z" />
<glyph unicode="&#xe62c;" glyph-name="TheGem-Elementor-Widget-Icon-69" d="M91.429 539.429c10.971 0 18.286 10.971 18.286 18.286 0 40.229 32.914 73.143 73.143 73.143h658.286c40.229 0 73.143-32.914 73.143-73.143 0-10.971 7.314-18.286 18.286-18.286s18.286 10.971 18.286 18.286c0 58.514-47.543 109.714-109.714 109.714h-658.286c-58.514 0-109.714-47.543-109.714-109.714 0-7.314 7.314-18.286 18.286-18.286zM932.571 393.143c-10.971 0-18.286-7.314-18.286-18.286 0-40.229-32.914-73.143-73.143-73.143h-658.286c-40.229 0-73.143 32.914-73.143 73.143 0 10.971-7.314 18.286-18.286 18.286s-18.286-10.971-18.286-18.286c0-58.514 47.543-109.714 109.714-109.714h658.286c58.514 0 109.714 47.543 109.714 109.714 0 7.314-10.971 18.286-18.286 18.286zM512 448c-10.971 0-18.286-7.314-18.286-18.286s7.314-18.286 18.286-18.286h256c10.971 0 18.286 7.314 18.286 18.286s-7.314 18.286-18.286 18.286h-256zM859.429 502.857c0 10.971-7.314 18.286-18.286 18.286h-329.143c-10.971 0-18.286-7.314-18.286-18.286s7.314-18.286 18.286-18.286h329.143c10.971 0 18.286 7.314 18.286 18.286zM413.257 502.857c-3.657 7.314-7.314 10.971-14.629 10.971l-65.829 10.971-29.257 58.514c-7.314 10.971-25.6 10.971-32.914 0l-29.257-58.514-65.829-10.971c-7.314 0-10.971-7.314-14.629-10.971-3.657-7.314 0-14.629 3.657-18.286l47.543-43.886-7.314-65.829c0-7.314 0-14.629 7.314-18.286s14.629-3.657 18.286 0l58.514 29.257 58.514-29.257c3.657 0 7.314-3.657 7.314-3.657 3.657 0 7.314 0 10.971 3.657 7.314 3.657 7.314 10.971 7.314 18.286l-10.971 65.829 47.543 43.886c7.314 3.657 7.314 10.971 3.657 18.286zM332.8 458.971c-3.657-3.657-7.314-10.971-3.657-14.629l7.314-36.571-32.914 18.286c-3.657 0-7.314 3.657-7.314 3.657s-7.314 0-7.314-3.657l-32.914-18.286 7.314 36.571c0 7.314 0 10.971-3.657 14.629l-36.571 25.6 36.571 3.657c7.314 0 10.971 3.657 14.629 10.971l18.286 32.914 18.286-32.914c3.657-3.657 7.314-10.971 14.629-10.971l36.571-3.657-29.257-25.6z" />
<glyph unicode="&#xe62d;" glyph-name="TheGem-Elementor-Widget-Icon-72" d="M859.429 250.514c32.914 62.171 54.857 128 54.857 197.486s-18.286 138.971-54.857 197.486c0 0 0 0 0 0s0 0 0 3.657c-69.486 124.343-204.8 201.143-347.429 201.143s-277.943-76.8-347.429-201.143c0 0 0 0 0-3.657 0 0 0 0 0 0-36.571-58.514-54.857-128-54.857-197.486s18.286-138.971 54.857-197.486c0 0 0 0 0 0s0 0 0-3.657c73.143-124.343 204.8-201.143 347.429-201.143s277.943 76.8 347.429 204.8c0-3.657 0-3.657 0 0 0 0 0 0 0 0zM512 82.286c-43.886 0-91.429 62.171-117.029 157.257h237.714c-29.257-95.086-76.8-157.257-120.686-157.257zM190.171 272.457c-25.6 51.2-40.229 102.4-43.886 157.257h182.857c0-54.857 7.314-106.057 18.286-157.257h-157.257zM190.171 619.886h157.257c-10.971-47.543-18.286-98.743-18.286-153.6h-182.857c3.657 54.857 18.286 106.057 43.886 153.6zM512 813.714c43.886 0 91.429-62.171 117.029-157.257h-237.714c29.257 95.086 76.8 157.257 120.686 157.257zM833.829 619.886c25.6-47.543 40.229-102.4 43.886-157.257h-182.857c0 54.857-7.314 106.057-18.286 157.257h157.257zM640 619.886c10.971-47.543 18.286-102.4 18.286-157.257h-292.571c0 54.857 7.314 106.057 18.286 157.257h256zM384 272.457c-10.971 51.2-18.286 102.4-18.286 157.257h292.571c0-54.857-7.314-106.057-18.286-157.257h-256zM694.857 429.714h182.857c-3.657-54.857-18.286-106.057-43.886-157.257h-157.257c10.971 51.2 18.286 102.4 18.286 157.257zM808.229 656.457h-142.629c-18.286 62.171-40.229 109.714-69.486 142.629 87.771-18.286 164.571-69.486 212.114-142.629zM424.229 802.743c-29.257-32.914-51.2-80.457-69.486-142.629h-138.971c47.543 69.486 124.343 120.686 208.457 142.629zM215.771 235.886h142.629c18.286-62.171 40.229-109.714 69.486-142.629-87.771 21.943-164.571 73.143-212.114 142.629zM599.771 93.257c29.257 32.914 51.2 80.457 69.486 142.629h142.629c-51.2-69.486-128-120.686-212.114-142.629z" />
<glyph unicode="&#xe62e;" glyph-name="TheGem-Elementor-Widget-Icon-71" d="M896 557.714c-10.971 0-18.286-7.314-18.286-18.286v-329.143c0-69.486-58.514-128-128-128h-512c-69.486 0-128 58.514-128 128v73.143c0 10.971-7.314 18.286-18.286 18.286s-18.286-7.314-18.286-18.286v-73.143c0-91.429 73.143-164.571 164.571-164.571h512c91.429 0 164.571 73.143 164.571 164.571v329.143c0 10.971-7.314 18.286-18.286 18.286zM749.714 886.857h-512c-91.429 0-164.571-73.143-164.571-164.571v-329.143c0-10.971 7.314-18.286 18.286-18.286s18.286 7.314 18.286 18.286v329.143c0 69.486 58.514 128 128 128h512c69.486 0 128-58.514 128-128v-73.143c0-10.971 7.314-18.286 18.286-18.286s18.286 7.314 18.286 18.286v73.143c0 91.429-73.143 164.571-164.571 164.571zM493.714 813.714c-10.971 0-18.286-7.314-18.286-18.286v-241.371c-40.229-7.314-73.143-43.886-73.143-87.771 0-51.2 40.229-91.429 91.429-91.429 43.886 0 80.457 32.914 87.771 73.143h204.8c10.971 0 18.286 7.314 18.286 18.286s-7.314 18.286-18.286 18.286h-204.8c-7.314 36.571-36.571 65.829-69.486 69.486v241.371c0 10.971-7.314 18.286-18.286 18.286zM548.571 466.286c0-29.257-25.6-54.857-54.857-54.857s-54.857 25.6-54.857 54.857 25.6 54.857 54.857 54.857 54.857-25.6 54.857-54.857z" />
<glyph unicode="&#xe62f;" glyph-name="TheGem-Elementor-Widget-Icon-70" d="M859.429 630.857h-694.857c-91.429 0-164.571-73.143-164.571-164.571s73.143-164.571 164.571-164.571h694.857c91.429 0 164.571 73.143 164.571 164.571s-73.143 164.571-164.571 164.571zM859.429 338.286h-694.857c-69.486 0-128 58.514-128 128s58.514 128 128 128h694.857c69.486 0 128-58.514 128-128s-58.514-128-128-128zM859.429 484.571c0 51.2-40.229 91.429-91.429 91.429s-91.429-40.229-91.429-91.429 40.229-91.429 91.429-91.429c18.286 0 36.571 7.314 51.2 14.629l47.543-47.543 25.6 25.6-47.543 47.543c7.314 14.629 14.629 32.914 14.629 51.2zM768 429.714c-29.257 0-54.857 25.6-54.857 54.857s25.6 54.857 54.857 54.857 54.857-25.6 54.857-54.857-25.6-54.857-54.857-54.857z" />
<glyph unicode="&#xe630;" glyph-name="TheGem-Elementor-Widget-Icon-73" d="M73.143 411.429c-21.943 0-36.571 18.286-36.571 36.571v438.857c0 21.943 18.286 36.571 36.571 36.571h438.857c21.943 0 36.571-18.286 36.571-36.571 0-10.971 7.314-18.286 18.286-18.286s18.286 7.314 18.286 18.286c0 40.229-32.914 73.143-73.143 73.143h-438.857c-40.229 0-73.143-32.914-73.143-73.143v-438.857c0-40.229 32.914-73.143 73.143-73.143 10.971 0 18.286 7.314 18.286 18.286s-7.314 18.286-18.286 18.286zM219.429 265.143c-21.943 0-36.571 18.286-36.571 36.571v438.857c0 21.943 18.286 36.571 36.571 36.571h438.857c21.943 0 36.571-18.286 36.571-36.571 0-10.971 7.314-18.286 18.286-18.286 0 0 0 0 0 0 10.971 0 18.286 7.314 18.286 18.286 0 40.229-32.914 73.143-73.143 73.143h-438.857c-40.229 0-73.143-32.914-73.143-73.143v-438.857c0-40.229 32.914-73.143 73.143-73.143 10.971 0 18.286 7.314 18.286 18.286s-7.314 18.286-18.286 18.286zM658.286 118.857h-292.571c-21.943 0-36.571 18.286-36.571 36.571v438.857c0 21.943 18.286 36.571 36.571 36.571h438.857c21.943 0 36.571-18.286 36.571-36.571v-292.571c0-10.971 7.314-18.286 18.286-18.286s18.286 7.314 18.286 18.286v292.571c0 40.229-32.914 73.143-73.143 73.143h-438.857c-40.229 0-73.143-32.914-73.143-73.143v-438.857c0-40.229 32.914-73.143 73.143-73.143h292.571c10.971 0 18.286 7.314 18.286 18.286s-7.314 18.286-18.286 18.286zM1002.057 60.343l-310.857 310.857c0 3.657-3.657 3.657-7.314 3.657l-102.4 25.6c-7.314 0-14.629 0-18.286-3.657s-7.314-10.971-3.657-18.286l25.6-102.4c0-3.657 3.657-7.314 3.657-7.314l310.857-310.857c14.629-14.629 32.914-21.943 51.2-21.943s36.571 7.314 51.2 21.943c29.257 29.257 29.257 73.143 0 102.4zM976.457-16.457c-14.629-14.629-36.571-14.629-51.2 0l-307.2 307.2-18.286 69.486 69.486-18.286 307.2-307.2c7.314-7.314 10.971-14.629 10.971-25.6s-3.657-18.286-10.971-25.6z" />
<glyph unicode="&#xe631;" glyph-name="TheGem-Elementor-Widget-Icon-74" d="M610.743 517.486c-25.6 0-47.543 21.943-47.543 47.543 0 10.971-7.314 18.286-18.286 18.286s-18.286-7.314-18.286-18.286c0-40.229 29.257-76.8 65.829-84.114v-36.571c0-10.971 7.314-18.286 18.286-18.286s18.286 7.314 18.286 18.286v36.571c40.229 7.314 65.829 43.886 65.829 84.114 0 47.543-40.229 84.114-84.114 84.114-25.6 0-47.543 21.943-47.543 47.543s21.943 47.543 47.543 47.543 47.543-14.629 47.543-40.229c0-10.971 7.314-18.286 18.286-18.286s18.286 7.314 18.286 18.286c0 40.229-29.257 76.8-65.829 84.114v43.886c0 10.971-7.314 18.286-18.286 18.286s-18.286-7.314-18.286-18.286v-43.886c-40.229-10.971-69.486-43.886-69.486-84.114 0-47.543 40.229-84.114 84.114-84.114 25.6 0 47.543-21.943 47.543-47.543s-18.286-54.857-43.886-54.857zM950.857 290.743c-7.314 43.886-47.543 73.143-91.429 69.486l-241.371-29.257c-3.657 3.657-7.314 3.657-10.971 7.314l-164.571 95.086c-29.257 18.286-65.829 21.943-98.743 14.629l-230.4-62.171c-10.971-3.657-14.629-10.971-14.629-21.943 3.657-10.971 10.971-14.629 21.943-14.629l230.4 62.171c25.6 7.314 51.2 3.657 73.143-10.971l164.571-95.086c7.314-3.657 14.629-14.629 18.286-21.943 3.657-10.971 0-21.943-3.657-29.257-10.971-14.629-29.257-21.943-47.543-14.629l-138.971 54.857c-10.971 3.657-18.286 0-21.943-10.971s0-18.286 10.971-21.943l138.971-54.857c10.971-3.657 18.286-3.657 29.257-3.657 25.6 0 51.2 14.629 65.829 36.571 10.971 18.286 14.629 36.571 7.314 58.514 0 0 0 3.657 0 3.657l223.086 25.6c25.6 3.657 47.543-14.629 51.2-36.571s-7.314-40.229-25.6-47.543l-343.771-142.629c-25.6-10.971-51.2-7.314-76.8 3.657l-124.343 69.486c-25.6 14.629-51.2 18.286-80.457 14.629l-73.143-10.971c-10.971 0-18.286-10.971-14.629-21.943 0-10.971 10.971-18.286 21.943-14.629l73.143 10.971c18.286 3.657 40.229 0 54.857-10.971l124.343-69.486c18.286-10.971 40.229-14.629 58.514-14.629 14.629 0 32.914 3.657 47.543 10.971l343.771 142.629c29.257 3.657 47.543 40.229 43.886 80.457z" />
<glyph unicode="&#xe632;" glyph-name="TheGem-Elementor-Widget-Icon-75" d="M713.143 532.114c-3.657 7.314-7.314 10.971-14.629 10.971l-117.029 18.286-51.2 106.057c-3.657 7.314-10.971 10.971-14.629 10.971s-18.286-3.657-18.286-10.971l-51.2-106.057-117.029-18.286c-7.314 0-10.971-7.314-14.629-10.971-3.657-7.314 0-14.629 3.657-18.286l84.114-84.114-18.286-117.029c0-7.314 0-14.629 7.314-18.286s14.629-3.657 18.286 0l106.057 54.857 106.057-54.857c3.657 0 7.314-3.657 7.314-3.657 3.657 0 7.314 0 10.971 3.657 7.314 3.657 7.314 10.971 7.314 18.286l-25.6 117.029 84.114 84.114c7.314 3.657 7.314 10.971 7.314 18.286zM592.457 451.657c-7.314-3.657-7.314-10.971-7.314-18.286l14.629-87.771-80.457 43.886c-3.657 3.657-10.971 3.657-18.286 0l-80.457-43.886 14.629 87.771c0 7.314 0 10.971-3.657 14.629l-65.829 62.171 87.771 14.629c7.314 0 10.971 3.657 14.629 10.971l43.886 84.114 40.229-80.457c3.657-3.657 7.314-10.971 14.629-10.971l91.429-14.629-65.829-62.171zM98.743 290.743c0-7.314 0-14.629 7.314-18.286s14.629-3.657 18.286 0l62.171 29.257 62.171-32.914c3.657 0 7.314-3.657 7.314-3.657 3.657 0 7.314 0 10.971 3.657 7.314 3.657 7.314 10.971 7.314 18.286l-10.971 65.829 47.543 47.543c3.657 3.657 7.314 10.971 3.657 18.286s-7.314 10.971-14.629 10.971l-69.486 18.286-29.257 62.171c-7.314 10.971-25.6 10.971-32.914 0l-29.257-62.171-69.486-10.971c-7.314 0-10.971-7.314-14.629-10.971-3.657-7.314 0-14.629 3.657-18.286l51.2-51.2-10.971-65.829zM153.6 411.429c7.314 0 10.971 3.657 14.629 10.971l18.286 36.571 18.286-36.571c0-7.314 7.314-10.971 10.971-10.971l40.229-7.314-29.257-29.257c-3.657-3.657-7.314-10.971-3.657-14.629l7.314-40.229-36.571 18.286c-3.657 0-7.314 3.657-7.314 3.657s-7.314 0-7.314-3.657l-36.571-18.286 3.657 40.229c0 7.314 0 10.971-3.657 14.629l-29.257 29.257 40.229 7.314zM961.829 422.4c-3.657 7.314-7.314 10.971-14.629 10.971l-65.829 14.629-29.257 62.171c-7.314 10.971-25.6 10.971-32.914 0l-32.914-62.171-69.486-10.971c-7.314 0-10.971-7.314-14.629-10.971-3.657-7.314 0-14.629 3.657-18.286l47.543-47.543-10.971-65.829c0-7.314 0-14.629 7.314-18.286s14.629-3.657 18.286 0l62.171 32.914 62.171-32.914c3.657 0 7.314-3.657 7.314-3.657 3.657 0 7.314 0 10.971 3.657 7.314 3.657 7.314 10.971 7.314 18.286l-10.971 65.829 47.543 47.543c10.971 3.657 10.971 10.971 7.314 14.629zM877.714 378.514c-3.657-3.657-7.314-10.971-3.657-14.629l7.314-40.229-40.229 14.629c-3.657 0-7.314 3.657-7.314 3.657s-7.314 0-7.314-3.657l-36.571-18.286 7.314 40.229c0 7.314 0 10.971-3.657 14.629l-29.257 29.257 40.229 7.314c7.314 0 10.971 3.657 14.629 10.971l18.286 36.571 18.286-36.571c3.657-3.657 7.314-10.971 14.629-10.971l40.229-7.314-32.914-25.6zM91.429 758.857c10.971 0 18.286 10.971 18.286 18.286 0 40.229 32.914 73.143 73.143 73.143h658.286c40.229 0 73.143-32.914 73.143-73.143 0-10.971 7.314-18.286 18.286-18.286s18.286 10.971 18.286 18.286c0 58.514-47.543 109.714-109.714 109.714h-658.286c-62.171 0-109.714-47.543-109.714-109.714 0-7.314 7.314-18.286 18.286-18.286zM932.571 137.143c-10.971 0-18.286-7.314-18.286-18.286 0-40.229-32.914-73.143-73.143-73.143h-658.286c-40.229 0-73.143 32.914-73.143 73.143 0 10.971-7.314 18.286-18.286 18.286s-18.286-7.314-18.286-18.286c0-58.514 47.543-109.714 109.714-109.714h658.286c58.514 0 109.714 47.543 109.714 109.714 0 10.971-10.971 18.286-18.286 18.286z" />
<glyph unicode="&#xe633;" glyph-name="TheGem-Elementor-Widget-Icon-76" d="M969.143 246.857c-3.657 7.314-7.314 10.971-14.629 10.971l-142.629 21.943-62.171 128c-7.314 10.971-25.6 10.971-32.914 0l-62.171-128-142.629-21.943c-7.314 0-10.971-7.314-14.629-10.971-3.657-7.314 0-14.629 3.657-18.286l102.4-98.743-25.6-142.629c0-7.314 0-14.629 7.314-18.286s14.629-3.657 18.286 0l128 65.829 128-65.829c3.657 0 7.314-3.657 7.314-3.657 3.657 0 7.314 0 10.971 3.657 7.314 3.657 7.314 10.971 7.314 18.286l-25.6 142.629 102.4 98.743c7.314 3.657 7.314 10.971 7.314 18.286zM830.171 148.114c-3.657-3.657-7.314-10.971-3.657-14.629l18.286-113.371-102.4 54.857c-3.657 0-7.314 3.657-7.314 3.657s-7.314 0-7.314-3.657l-106.057-58.514 18.286 113.371c0 7.314 0 10.971-3.657 14.629l-84.114 84.114 113.371 18.286c7.314 0 10.971 3.657 14.629 10.971l51.2 102.4 51.2-102.4c3.657-3.657 7.314-7.314 14.629-10.971l113.371-18.286-80.457-80.457zM420.571 45.714h-274.286v87.771c0 117.029 54.857 215.771 149.943 270.629 7.314 3.657 10.971 14.629 7.314 25.6-3.657 7.314-14.629 10.971-25.6 7.314-106.057-62.171-168.229-171.886-168.229-303.543v-106.057c0-10.971 7.314-18.286 18.286-18.286h292.571c10.971 0 18.286 7.314 18.286 18.286s-7.314 18.286-18.286 18.286zM694.857 667.429c0 120.686-98.743 219.429-219.429 219.429s-219.429-98.743-219.429-219.429 98.743-219.429 219.429-219.429 219.429 98.743 219.429 219.429zM475.429 484.571c-102.4 0-182.857 80.457-182.857 182.857s80.457 182.857 182.857 182.857 182.857-80.457 182.857-182.857-80.457-182.857-182.857-182.857z" />
</font>
</defs>
</svg>
